<?xml version="1.0" standalone="no"?>
<!DOCTYPE svg PUBLIC "-//W3C//DTD SVG 1.1//EN" "http://www.w3.org/Graphics/SVG/1.1/DTD/svg11.dtd" >
<svg xmlns="http://www.w3.org/2000/svg">
<metadata>Generated by IcoMoon</metadata>
<defs>
<font id="icomoon" horiz-adv-x="1024">
<font-face units-per-em="1024" ascent="960" descent="-64" />
<missing-glyph horiz-adv-x="1024" />
<glyph unicode="&#x20;" horiz-adv-x="512" d="" />
<glyph unicode="&#xe900;" glyph-name="add" d="M512.028 846.279c219.932 0 398.222-178.29 398.222-398.222s-178.29-398.222-398.222-398.222c-219.932 0-398.222 178.29-398.222 398.222s178.29 398.222 398.222 398.222zM312.889 391.111h142.222v-142.222h113.778v142.222h142.222v113.778h-142.222v142.222h-113.778v-142.222h-142.222v-113.778zM512.028 903.168c-250.937 0-455.111-204.174-455.111-455.111s204.174-455.111 455.111-455.111c250.937 0 455.111 204.174 455.111 455.111s-204.174 455.111-455.111 455.111z" />
<glyph unicode="&#xe901;" glyph-name="address_book" d="M967.111 819.655c0 46.023-37.404 83.456-83.399 83.456h-713.045c-31.403 0-56.889-25.486-56.889-56.889v-170.667h-28.444c-15.701 0-28.444-12.715-28.444-28.444v-28.444c0-15.701 12.743-28.444 28.444-28.444h28.444v-284.444h-28.444c-15.701 0-28.444-12.715-28.444-28.444v-28.444c0-15.73 12.743-28.444 28.444-28.444h28.444v-170.667c0-31.403 25.486-56.889 56.889-56.889h654.222c31.403 0 56.889 25.486 56.889 56.889v170.667h1.934c49.152 0 83.399 48.384 83.399 91.819v114.091c0 14.734-3.868 28.245-10.752 39.794 6.94 13.312 10.752 28.217 10.752 42.78v114.091c0 14.848-3.925 28.644-10.809 40.476 6.855 12.572 10.809 26.937 10.809 42.126v114.034zM824.889 49.778h-654.222v170.667h56.889c15.701 0 28.444 12.715 28.444 28.444v28.444c0 15.73-12.743 28.444-28.444 28.444h-56.889v284.444h56.889c15.701 0 28.444 12.743 28.444 28.444v28.444c0 15.73-12.743 28.444-28.444 28.444h-56.889v170.667h654.222v-796.444zM910.222 312.263c0-14.649-11.861-34.93-26.51-34.93h-30.379v170.667h30.379c14.649 0 26.51-6.997 26.51-21.675v-114.062zM910.222 508.928c0-14.677-11.861-32.484-26.51-32.484h-30.379v170.667h30.379c14.649 0 26.51-9.472 26.51-24.092v-114.091zM910.222 705.621c0-14.649-11.861-30.066-26.51-30.066h-30.379v170.667h30.379c14.649 0 26.51-11.89 26.51-26.567v-114.034z" />
<glyph unicode="&#xe902;" glyph-name="airplay" d="M534.443 550.827c-10.78 13.852-34.105 13.852-44.885 0l-398.222-512c-6.656-8.59-7.879-20.224-3.1-30.009 4.779-9.7 14.677-15.929 25.543-15.929h797.013c15.73 0 28.444 12.715 28.444 28.444 0 8.448-3.641 15.957-9.415 21.163l-395.378 508.331zM171.947 49.778l340.053 437.22 340.053-437.22h-680.107zM730.709 391.111l22.158-28.444h100.494v426.667h-682.695v-426.667h100.494l22.13 28.444h-94.18v369.778h625.806v-369.778zM910.222 903.111h-796.444c-31.403 0-56.889-25.458-56.889-56.889v-540.444c0-31.403 25.486-56.889 56.889-56.889h68.864l44.26 56.889h-113.124v540.444h796.444v-540.444h-113.124l44.26-56.889h68.864c31.403 0 56.889 25.486 56.889 56.889v540.444c0 31.431-25.486 56.889-56.889 56.889z" />
<glyph unicode="&#xe903;" glyph-name="album" d="M910.222 903.111h-796.444c-31.403 0-56.889-25.486-56.889-56.889v-796.444c0-31.403 25.486-56.889 56.889-56.889h796.444c31.403 0 56.889 25.486 56.889 56.889v796.444c0 31.403-25.486 56.889-56.889 56.889zM227.556 49.778h-113.778v796.444h113.778v-796.444zM739.556 49.778h-483.556v796.444h142.222v-395.15l71.14 87.268 71.083-87.268v395.15h199.111v-796.444zM824.889 49.778h-56.889v796.444h56.889v-796.444zM910.222 49.778h-56.889v796.444h56.889v-796.444z" />
<glyph unicode="&#xe904;" glyph-name="alert" d="M939.463 265.785l-277.618 528.725c-36.238 69.006-90.88 108.601-149.845 108.601-34.645 0-100.181-14.108-149.817-108.516l-277.646-528.868c-34.844-66.361-36.608-134.514-4.864-187.051 32.91-54.5 97.877-85.788 178.119-85.788h508.388c80.27 0 145.18 31.289 178.176 85.817 31.744 52.508 29.98 120.718-4.892 187.079zM766.208 49.778h-508.416c-122.311 0-177.607 85.362-122.908 189.497l277.618 528.839c27.392 52.082 63.431 78.108 99.499 78.108s72.135-26.084 99.499-78.165l277.646-528.725c54.699-104.164-0.654-189.554-122.937-189.554zM512.028 248.889c-23.609 0-42.667-19.115-42.667-42.667s19.086-42.667 42.667-42.667c23.552 0 42.667 19.115 42.667 42.667s-19.115 42.667-42.667 42.667zM469.333 305.778h85.362l28.444 284.444h-142.251z" />
<glyph unicode="&#xe905;" glyph-name="alien" d="M404.565 419.982c-28.644 18.972-62.805 23.694-89.742 23.694-26.766 0-46.393-4.693-46.393-4.693s13.596-80.071 70.798-117.902c28.615-18.944 62.72-23.666 89.628-23.666 26.795 0 46.45 4.693 46.45 4.693s-13.54 80.1-70.741 117.874zM619.378 419.982c-57.145-37.774-70.741-117.874-70.741-117.874s19.655-4.693 46.507-4.693c26.908 0 61.042 4.722 89.628 23.666 57.145 37.803 70.741 117.902 70.741 117.902s-19.598 4.693-46.393 4.693c-26.908 0-61.070-4.722-89.742-23.694zM511.972 903.111c-263.708 0-455.083-172.8-455.083-410.88 0-246.158 383.573-467.655 427.321-492.117 8.619-4.807 18.204-7.225 27.762-7.225s19.143 2.389 27.762 7.225c43.748 24.462 427.378 245.959 427.378 492.117 0 238.080-191.431 410.88-455.14 410.88zM511.972 49.778c0 0-398.194 222.549-398.194 442.453 0 219.932 178.29 353.991 398.194 353.991s398.251-134.059 398.251-353.991c0-219.904-398.251-442.453-398.251-442.453z" />
<glyph unicode="&#xe906;" glyph-name="anchor" d="M512 846.222c62.834 0 113.778-50.944 113.778-113.778 0-42.012-23.040-78.279-56.889-97.991v-464.526c76.544 16.668 147.684 66.731 204.772 144.1l-62.549 48.612h199.111v-185.173l-55.296 55.296c-91.563-117.276-212.736-183.012-342.926-183.012-130.219 0-251.364 51.769-342.955 169.074l-55.268-55.296v199.111h199.111l-62.322-62.265c57.060-77.34 128-113.806 204.544-130.446v464.526c-33.849 19.712-56.889 55.95-56.889 97.991 0 62.805 50.944 113.778 113.778 113.778zM512 675.556c31.374 0 56.889 25.515 56.889 56.889s-25.515 56.889-56.889 56.889c-31.374 0-56.889-25.515-56.889-56.889s25.515-56.889 56.889-56.889zM512 903.111c-94.123 0-170.667-76.544-170.667-170.667 0-48.498 21.191-94.549 56.889-126.578v-352.939c-24.832 14.564-48.612 19.996-70.855 43.776l25.742 25.742c16.27 16.242 21.134 40.761 12.345 62.009-8.818 21.248-29.554 35.072-52.565 35.072h-199.111c-31.403 0-56.889-25.458-56.889-56.889v-199.111c0-23.012 13.852-43.719 35.1-52.537 7.054-2.901 14.45-4.352 21.788-4.352 14.82 0 29.326 5.803 40.22 16.697l12.089 12.089c97.195-101.348 218.055-142.564 345.913-142.564s248.718 55.125 345.913 156.501l12.089-12.117c10.894-10.894 25.458-16.668 40.22-16.668 7.339 0 14.734 1.422 21.788 4.352 21.248 8.789 35.1 29.554 35.1 52.537v185.173c0 31.431-25.486 56.889-56.889 56.889h-199.111c-23.012 0-43.748-13.824-52.565-35.072s-3.954-45.739 12.345-62.009l25.97-12.060c-22.272-23.751-46.108-43.093-71.083-57.6v353.052c35.698 32.028 56.889 78.080 56.889 126.578 0 94.151-76.544 170.695-170.667 170.695z" />
<glyph unicode="&#xe907;" glyph-name="apple" d="M810.126 644.949c-43.577 19.484-89.173 29.383-135.538 29.383-7.68 0-15.104-0.284-22.443-0.768 1.678 5.319 2.617 10.951 2.617 16.754v57.572c0 31.403-25.486 56.889-56.889 56.889-35.3 0-68.096-11.918-96.114-34.702-8.192 20.85-20.821 41.5-39.367 60.416-66.276 67.356-164.494 72.619-193.024 72.619l-3.783-0.057c-29.696-0.996-53.931-24.718-55.211-54.386-0.484-11.748-2.873-111.445 57.543-184.718-18.29-4.722-36.352-11.093-54.101-19.001-120.974-54.13-178.318-171.179-149.646-305.522 35.868-168.021 204.971-346.539 447.858-346.539 242.83 0 411.932 178.517 447.772 346.539 28.7 134.343-28.672 251.392-149.675 305.522zM523.975 712.932c20.764 22.869 45.54 34.958 73.927 34.958v-57.572c0 0-20.167-4.978-29.895-15.644-12.203-13.34-17.948-33.877-22.13-57.23l-37.262-17.664-26.084 12.316c6.912 38.827 18.432 75.605 41.444 100.836zM267.264 846.194c0 0 0.683 0.028 2.105 0.028 14.507 0 100.068-2.332 152.434-55.552 57.259-58.368 29.070-135.822 29.070-135.822s-13.909-4.267-34.304-4.267c-26.453 0-63.886 7.196-96.228 40.107-57.316 58.368-53.077 155.506-53.077 155.506zM512.028 49.778c-345.543 0-539.733 424.875-275.001 543.232 39.879 17.835 77.71 24.405 111.929 24.405 32.512 0 61.127-6.201 85.532-14.137l68.011-32.085c1.934-0.91 4.011-1.365 6.087-1.365s4.153 0.455 6.087 1.365l51.655 24.491c28.103 11.492 65.308 21.76 108.26 21.76 34.418 0 72.448-6.599 112.299-24.434 264.846-118.357 70.656-543.232-274.859-543.232z" />
<glyph unicode="&#xe908;" glyph-name="arrange_fill" d="M910.222 590.222h-142.222v-113.778h85.333v-369.778h-369.778v85.333h-113.778v-142.222c0-31.289 25.6-56.889 56.889-56.889h483.556c31.289 0 56.889 25.6 56.889 56.889v483.556c0 31.289-25.6 56.889-56.889 56.889zM711.111 305.778v540.444c0 31.403-25.486 56.889-56.889 56.889h-540.444c-31.403 0-56.889-25.486-56.889-56.889v-540.444c0-31.403 25.486-56.889 56.889-56.889h540.444c31.403 0 56.889 25.486 56.889 56.889zM113.778 846.222h540.444v-540.444h-540.444v540.444z" />
<glyph unicode="&#xe909;" glyph-name="arrange_stroke" d="M113.778 846.222h540.444v-199.111h56.889v199.111c0 31.403-25.486 56.889-56.889 56.889h-540.444c-31.403 0-56.889-25.486-56.889-56.889v-540.444c0-31.403 25.486-56.889 56.889-56.889h199.111v56.889h-199.111v540.444zM910.222 590.222h-483.556c-31.289 0-56.889-25.6-56.889-56.889v-483.556c0-31.289 25.6-56.889 56.889-56.889h483.556c31.289 0 56.889 25.6 56.889 56.889v483.556c0 31.289-25.6 56.889-56.889 56.889zM853.333 106.667h-369.778v369.778h369.778v-369.778z" />
<glyph unicode="&#xe90a;" glyph-name="arrange" d="M113.778 846.222h540.444v-142.222h56.889v142.222c0 31.403-25.458 56.889-56.889 56.889h-540.444c-31.403 0-56.889-25.486-56.889-56.889v-540.444c0-31.403 25.486-56.889 56.889-56.889h142.222v56.889h-142.222v540.444zM910.222 647.111h-540.444c-31.403 0-56.889-25.486-56.889-56.889v-540.444c0-31.403 25.486-56.889 56.889-56.889h540.444c31.431 0 56.889 25.486 56.889 56.889v540.444c0 31.403-25.458 56.889-56.889 56.889zM910.222 49.778h-540.444v540.444h540.444v-540.444z" />
<glyph unicode="&#xe90b;" glyph-name="arrow_down_alt" d="M625.778 846.222v-341.333l285.013 56.889-398.791-512-398.791 512 285.013-56.889v341.333h227.556zM625.778 903.111h-227.556c-31.403 0-56.889-25.486-56.889-56.889v-271.986l-216.974 43.321c-3.726 0.74-7.452 1.109-11.15 1.109-19.456 0-37.916-10.012-48.412-26.994-12.459-20.224-11.065-46.080 3.527-64.853l398.791-512c10.78-13.852 27.364-21.931 44.885-21.931s34.105 8.078 44.885 21.931l398.791 512c14.62 18.773 15.986 44.629 3.527 64.853-10.496 16.981-28.956 26.994-48.412 26.994-3.698 0-7.424-0.37-11.15-1.109l-216.974-43.321v271.986c0 31.403-25.486 56.889-56.889 56.889z" />
<glyph unicode="&#xe90c;" glyph-name="arrow_down" d="M512.028 846.222c219.876 0 398.222-178.29 398.222-398.222s-178.347-398.222-398.222-398.222c-219.932 0-398.222 178.29-398.222 398.222-0.028 219.932 178.29 398.222 398.222 398.222zM512.028 220.103l213.788 256.284h-156.956v170.667h-113.749v-170.667h-156.928l213.845-256.284zM512.028 903.111c-250.965 0-455.14-204.174-455.14-455.111s204.146-455.111 455.111-455.111c250.908 0 455.111 204.174 455.111 455.111 0.028 250.937-204.174 455.111-455.083 455.111z" />
<glyph unicode="&#xe90d;" glyph-name="arrow_left_alt" d="M625.778 846.791h0.142zM625.778 846.791l-56.889-285.013h341.333v-227.556h-341.333l56.889-284.985-512 398.734 512 398.82zM625.778 903.68h-0.683c-13.084-0.171-25.116-4.75-34.674-12.345l-511.602-398.421c-13.852-10.78-21.931-27.335-21.931-44.942 0-17.522 8.078-34.076 21.931-44.857l512-398.791c10.212-7.936 22.556-12.004 34.958-12.004 10.325 0 20.708 2.816 29.895 8.476 20.224 12.487 30.549 36.238 25.884 59.563l-43.292 216.946h271.957c31.403 0 56.889 25.486 56.889 56.889v227.556c0 31.431-25.486 56.889-56.889 56.889h-271.986l42.724 214.073c1.166 4.494 1.764 9.188 1.764 14.052 0 31.403-25.429 56.889-56.832 56.889h-0.114z" />
<glyph unicode="&#xe90e;" glyph-name="arrow_left" d="M512 846.222c219.961 0 398.222-178.29 398.222-398.222s-178.261-398.222-398.222-398.222c-219.932 0-398.222 178.29-398.222 398.222s178.29 398.222 398.222 398.222zM540.444 234.268v156.843h170.667v113.778h-170.667v156.956l-256.284-213.788 256.284-213.788zM512 903.111c-250.937 0-455.111-204.174-455.111-455.111s204.174-455.111 455.111-455.111c250.937 0 455.111 204.174 455.111 455.111s-204.174 455.111-455.111 455.111z" />
<glyph unicode="&#xe90f;" glyph-name="arrow_right_alt" d="M398.222 846.791l512-398.82-512-398.763 56.889 284.985h-341.333v227.556h341.333l-56.889 285.042zM398.222 903.68c-10.325 0-20.708-2.816-29.895-8.476-20.224-12.487-30.549-36.238-25.884-59.563l43.321-216.974h-271.986c-31.403 0-56.889-25.458-56.889-56.889v-227.556c0-31.403 25.486-56.889 56.889-56.889h271.986l-43.321-216.946c-4.665-23.296 5.66-47.047 25.884-59.563 9.188-5.66 19.57-8.476 29.895-8.476 12.402 0 24.718 4.039 34.958 12.004l512 398.791c13.852 10.752 21.931 27.307 21.931 44.828 0 17.607-8.078 34.162-21.931 44.942l-512 398.763c-10.24 7.908-22.556 12.004-34.958 12.004z" />
<glyph unicode="&#xe910;" glyph-name="arrow_right" d="M512 846.222c219.932 0 398.222-178.29 398.222-398.222s-178.29-398.222-398.222-398.222c-219.876 0-398.222 178.29-398.222 398.222s178.347 398.222 398.222 398.222zM312.889 391.111h170.667v-156.9l256.284 213.788-256.284 213.788v-156.956h-170.667v-113.721zM512 903.111c-250.937 0-455.111-204.174-455.111-455.111s204.174-455.111 455.111-455.111c250.937 0 455.111 204.174 455.111 455.111s-204.174 455.111-455.111 455.111z" />
<glyph unicode="&#xe911;" glyph-name="arrow_up_alt" d="M512 846.222l398.791-512-285.013 56.889v-341.333h-227.556v341.333l-285.013-56.889 398.791 512zM512 903.111c-17.522 0-34.105-8.078-44.885-21.931l-398.791-512c-14.592-18.745-15.986-44.601-3.527-64.825 10.496-17.010 28.956-27.022 48.412-27.022 3.698 0 7.424 0.37 11.15 1.109l216.974 43.321v-271.986c0-31.403 25.486-56.889 56.889-56.889h227.556c31.403 0 56.889 25.486 56.889 56.889v271.986l216.974-43.292c3.726-0.768 7.452-1.138 11.15-1.138 19.484 0 37.916 10.012 48.412 26.994 12.459 20.224 11.093 46.080-3.527 64.825l-398.791 512c-10.78 13.881-27.364 21.959-44.885 21.959z" />
<glyph unicode="&#xe912;" glyph-name="arrow_up" d="M540.444 846.222c219.932 0 398.222-178.29 398.222-398.222 0-219.876-178.29-398.222-398.222-398.222s-398.222 178.347-398.222 398.222c0 219.932 178.29 398.222 398.222 398.222zM326.656 419.556h156.9v-170.667h113.778v170.667h156.928l-213.817 256.284-213.788-256.284zM540.444 903.111c-250.937 0-455.111-204.174-455.111-455.111s204.174-455.111 455.111-455.111c250.937 0 455.111 204.174 455.111 455.111s-204.174 455.111-455.111 455.111z" />
<glyph unicode="&#xe913;" glyph-name="asterisk" d="M597.333 846.222v-220.132l149.845 158.521 98.503-101.348-155.676-149.931h220.217v-170.667h-220.274l158.606-149.931-101.376-98.446-149.845 155.648v-220.16h-170.667v220.217l-149.931-158.606-98.503 101.319 155.705 149.959h-220.16v170.667h220.103l-158.606 149.931 101.404 98.446 149.988-155.676v220.188h170.667zM597.333 903.111h-170.667c-31.431 0-56.889-25.486-56.889-56.889v-79.132l-52.11 54.101c-10.496 10.894-24.889 17.18-40.050 17.408h-0.939c-14.791 0-29.013-5.746-39.623-16.071l-101.376-98.446c-11.122-10.809-17.408-25.657-17.294-41.188 0.114-15.502 6.571-30.322 17.835-40.96l54.67-51.712h-77.113c-31.431 0-56.889-25.486-56.889-56.889v-170.667c0-31.403 25.458-56.889 56.889-56.889h79.047l-54.044-52.053c-10.894-10.496-17.18-24.889-17.436-40.021-0.228-15.132 5.547-29.724 16.1-40.59l98.446-101.348c10.724-11.036 25.429-17.237 40.846-17.237h0.37c15.502 0.114 30.293 6.542 40.96 17.806l51.712 54.67v-77.227c0-31.403 25.458-56.889 56.889-56.889h170.667c31.403 0 56.889 25.486 56.889 56.889v79.047l51.996-53.988c10.439-10.923 24.889-17.18 39.993-17.436h0.939c14.791 0 29.013 5.746 39.68 16.071l101.319 98.475c11.122 10.809 17.38 25.685 17.266 41.188s-6.542 30.293-17.835 40.932l-54.642 51.712h77.284c31.403 0 56.889 25.486 56.889 56.889v170.667c0 31.403-25.486 56.889-56.889 56.889h-79.161l54.101 52.082c10.894 10.496 17.18 24.917 17.38 40.021 0.284 15.161-5.547 29.753-16.043 40.619l-98.503 101.348c-10.724 10.98-25.458 17.209-40.846 17.209h-0.398c-15.502-0.114-30.265-6.542-40.932-17.806l-51.598-54.613v77.141c0 31.403-25.486 56.889-56.889 56.889z" />
<glyph unicode="&#xe914;" glyph-name="award_medal" d="M512.057 504.889l-57.173-121.742-127.772-19.541 92.388-94.748-21.276-133.774 113.835 63.204 113.721-63.204-21.333 133.774 92.444 94.748-127.716 19.541zM967.054 846.222c0 31.403-25.401 56.889-56.832 56.889h-796.444c-31.403 0-56.889-25.486-56.889-56.889v-142.222h0.114c0-13.312 4.608-26.51 13.596-37.035l170.667-199.111c0.626-0.711 1.28-1.422 1.906-2.105-27.961-46.848-44.060-101.575-44.060-159.972 0-172.516 140.402-312.889 312.889-312.889 172.544 0 312.889 140.373 312.889 312.889 0 58.396-16.043 113.124-44.060 159.972 0.654 0.683 1.337 1.394 1.934 2.105l169.387 197.746c9.301 10.126 14.962 23.58 14.962 38.4l-0.057 142.222zM512 49.778c-141.397 0-256 114.603-256 256s114.603 256 256 256c141.397 0 256-114.603 256-256s-114.603-256-256-256zM739.556 504.889h-5.547c-54.727 60.956-133.831 99.556-222.009 99.556s-167.225-38.599-221.952-99.556h-5.604l-170.667 199.111h796.444l-170.667-199.111zM910.222 732.444h-796.444v113.778h796.444v-113.778z" />
<glyph unicode="&#xe915;" glyph-name="award_ribbon" d="M512 846.222l61.611-35.584h71.196l35.556-61.554 61.611-35.612v-71.111l35.47-61.639-35.499-61.611v-71.111l-61.611-35.556-35.556-61.611h-71.196l-61.582-35.584-61.554 35.584h-71.168l-35.556 61.611-61.639 35.556v71.111l-35.556 61.611 35.556 61.639v71.111l61.611 35.612 35.556 61.554h71.168l61.582 35.584zM509.497 401.038c97.394 0 176.64 79.246 176.64 176.64 0 97.422-79.246 176.668-176.64 176.668s-176.612-79.246-176.612-176.668c0-97.394 79.189-176.64 176.612-176.64zM509.497 725.248c81.38 0 147.627-66.19 147.627-147.57 0-81.351-66.247-147.541-147.627-147.541-81.323 0-147.484 66.19-147.484 147.541 0 81.38 66.162 147.57 147.484 147.57zM771.413 433.636l138.78-275.883-140.43 11.861-74.183-119.836-131.556 261.461 17.436 10.069h80.299l8.476 14.763 31.63 54.756 69.547 40.164v2.645zM252.587 433.636v-2.645l69.49-40.164 40.164-69.518h80.242l17.436-10.069-131.499-261.461-74.183 119.836-140.459-11.861 138.809 275.883zM512 903.111c-9.842 0-19.655-2.532-28.444-7.652l-48.356-27.932h-55.95c-20.338 0-39.111-10.837-49.209-28.416l-27.961-48.384-48.441-27.989c-17.607-10.155-28.444-28.928-28.444-49.266v-55.893l-27.932-48.412c-10.126-17.607-10.126-39.282 0-56.86l27.932-48.441-162.219-320.54c-9.273-18.404-7.879-40.363 3.669-57.458 10.61-15.73 28.331-25.031 47.104-25.031 1.621 0 3.157 0.057 4.779 0.199l105.728 8.932 55.836-90.169c10.382-16.754 28.7-26.908 48.327-26.908 0.825 0 1.65 0 2.503 0.057 20.594 0.91 39.054 12.885 48.327 31.289l118.67 235.947c4.608-1.223 9.33-1.792 14.052-1.792s9.5 0.597 14.108 1.764l118.756-235.918c9.188-18.375 27.733-30.322 48.242-31.26 0.853-0.085 1.707-0.085 2.503-0.085 19.655 0 38.002 10.155 48.384 26.937l55.78 90.169 105.671-8.932c1.65-0.142 3.214-0.199 4.779-0.199 18.773 0 36.494 9.301 47.161 25.031 11.492 17.067 12.942 39.026 3.669 57.458l-162.19 320.569 27.847 48.412c10.183 17.607 10.183 39.225 0.057 56.832l-27.904 48.412v55.893c0 20.338-10.866 39.111-28.388 49.266l-48.441 27.989-27.989 48.384c-10.126 17.579-28.928 28.416-49.237 28.416h-55.922l-48.441 27.961c-8.789 5.092-18.574 7.623-28.416 7.623z" />
<glyph unicode="&#xe916;" glyph-name="baby_bottle" d="M937.728 873.529c-19.086 19.086-45.056 29.582-73.159 29.582-32.654 0-65.564-14.222-90.311-38.997-2.503-2.503-4.75-5.262-6.684-8.164l-12.601-18.46c-5.319 0.54-10.724 0.825-16.27 0.825-23.268 0-45.141-5.433-66.020-16.498-9.756 6.741-21.049 10.126-32.455 10.126-14.564 0-29.042-5.547-40.192-16.64l-71.168-71.054c-0.597-0.597-1.223-1.223-1.764-1.849-5.348 0.825-10.695 1.252-16.185 1.252-28.444 0-56.149-11.463-76.060-31.403l-348.274-348.16c-39.396-39.452-39.424-98.958 0-138.411l203.179-203.207c19.143-19.115 43.776-29.611 69.461-29.611 25.401 0 49.892 10.496 68.978 29.582l348.274 348.245c25.031 25.003 35.214 60.103 30.208 92.331 0.54 0.54 1.109 1.081 1.65 1.621l71.168 71.054c10.695 10.667 16.697 25.145 16.697 40.22 0 11.748-3.612 23.125-10.212 32.597 15.929 30.094 18.091 57.884 15.758 82.261l18.404 12.572c2.958 1.991 5.717 4.295 8.277 6.827 47.559 47.673 51.684 120.917 9.301 163.356zM736.256 410.908l-348.245-348.217c-9.017-8.96-19.058-12.942-28.786-12.942-10.78 0-21.134 4.864-29.241 12.942l-203.15 203.179c-15.445 15.474-18.972 39.054 0 58.027l45.198 45.255 62.037-62.123c2.162-2.076 5.092-3.072 8.249-3.072 0.455 0 0.91 0.028 1.394 0.057 3.612 0.37 7.396 2.105 10.468 5.205 6.144 6.116 7.083 15.104 2.133 20.11l-62.066 62.037 94.208 94.18 62.037-61.98c2.219-2.19 5.148-3.214 8.277-3.214 0.427 0 0.882 0 1.337 0.028 3.612 0.398 7.396 2.247 10.496 5.319 6.144 6.116 7.083 15.076 2.048 20.082l-61.98 62.037 94.236 94.18 61.952-61.98c2.247-2.19 5.148-3.186 8.249-3.186 0.455 0 0.939 0 1.394 0.057 3.641 0.398 7.452 2.133 10.468 5.291 6.144 6.059 7.111 15.047 2.162 20.053l-62.037 62.009 48.014 47.929c9.927 9.984 23.182 14.677 35.755 14.677 11.492 0 22.386-3.897 29.753-11.264l199.111-199.111c15.417-15.474 15.588-46.507-3.47-65.564zM768.142 504.889l-199.111 199.111 71.168 71.054 199.111-199.111-71.168-71.054zM888.149 750.364l-48.754-33.166c7.908-36.039 12.601-63.232-14.364-98.532l-142.222 142.222c20.224 15.502 37.774 20.537 55.865 20.537 13.54 0 27.278-2.816 42.695-6.172l33.166 48.668c14.62 14.677 33.081 22.3 50.034 22.3 12.516 0 24.263-4.21 32.91-12.885 20.309-20.309 16.128-57.486-9.33-82.972z" />
<glyph unicode="&#xe917;" glyph-name="baby_swaddle" d="M511.744 523.833c38.969 0 72.249 26.652 85.561 66.389h-170.667c13.625-38.94 46.592-66.389 85.106-66.389zM568.946 633.316c15.559 0 28.217 12.629 28.217 28.274 0 15.588-12.658 28.245-28.217 28.245-15.673 0-28.331-12.658-28.331-28.245 0-15.673 12.658-28.274 28.331-28.274zM483.556 633.316c15.616 0 28.274 12.629 28.274 28.274 0 15.588-12.658 28.245-28.274 28.245s-28.274-12.658-28.274-28.245c0-15.673 12.658-28.274 28.274-28.274zM913.977 522.524c-2.19 5.433-10.98 25.941-13.369 31.232-46.706 104.732-109.369 195.783-176.697 256.74-54.073 58.88-131.129 92.615-211.911 92.615s-157.838-33.707-211.968-92.644c-71.964-65.166-123.705-150.329-154.567-210.603-2.901-5.604-13.34-27.193-15.957-32.853-46.165-99.527-72.619-199.054-72.619-273.038 0-188.558 170.126-301.113 455.111-301.113 134.884 0 314.596 25.088 404.651 144.526 4.494 5.945 19.285 29.867 22.613 36.352 18.489 36.124 27.847 76.572 27.847 120.235 0 62.492-18.859 143.644-53.134 228.551zM340.224 770.105c41.813 46.535 103.225 76.117 171.776 76.117s129.934-29.554 171.719-76.089c67.84-60.644 125.013-149.959 164.949-239.531-93.895-88.548-222.066-190.236-348.331-229.575-163.413 82.574-256.284 196.153-304.242 272.953 38.059 74.297 87.296 145.294 144.128 196.124zM512 49.749c-219.961 0-398.222 70.798-398.222 244.224 0 64.597 24.946 157.639 67.328 249.060 85.988-130.048 285.156-337.664 690.119-371.399-64.228-85.163-200.96-121.884-359.225-121.884zM888.604 199.68c-140.544 10.041-256.057 41.301-350.265 83.257 118.955 45.084 234.951 136.363 322.901 218.283 31.204-77.369 48.981-152.548 48.981-207.246 0-35.783-7.68-67.044-21.618-94.293zM512.028 433.778c101.945 0 184.889 82.944 184.889 184.889s-82.944 184.889-184.889 184.889-184.889-82.944-184.889-184.889 82.944-184.889 184.889-184.889zM512.028 775.111c86.414 0 156.444-70.059 156.444-156.444s-70.030-156.444-156.444-156.444c-86.386 0-156.444 70.059-156.444 156.444s70.059 156.444 156.444 156.444z" />
<glyph unicode="&#xe918;" glyph-name="baby" d="M512.085 846.222c102.201 0 184.974-82.745 184.974-184.917 0-102.087-82.773-184.86-184.974-184.86-102.030 0-184.832 82.773-184.832 184.86 0 102.172 82.802 184.917 184.832 184.917zM511.886 523.833c51.94 0 96.341 37.945 114.062 66.389h-227.556c18.204-28.444 62.094-66.389 113.493-66.389zM799.687 588.345c35.954 0 68.039-21.020 81.778-54.244 9.017-21.76 9.017-45.084 0-66.901-9.102-21.845-26.055-37.348-47.872-46.364l-121.884-51.996c0.74-4.949-0.853-34.617-0.427-34.617h-398.222c0.398 0-1.109 29.668-0.455 34.617l-121.828 48.981c-21.817 8.96-38.827 26.027-47.929 47.872-9.017 21.845-9.017 45.881 0 67.669 13.824 33.223 45.881 54.613 81.835 54.613 11.605 0 22.983-2.219 33.82-6.713l54.528-19.484c37.319-62.123 121.543-120.889 199.111-120.889 77.625 0 161.764 58.738 199.111 120.889l54.613 19.627c10.809 4.523 22.215 6.94 33.82 6.94zM710.969 305.778c3.328-28.444 5.205-15.644-3.499-24.292-52.053-52.025-80.071-146.375-54.244-203.264h-282.112c25.884 56.889-2.219 151.239-54.215 203.264-8.761 8.647-6.912-4.153-3.556 24.292h397.625zM816.64 290.162c25.657 0 49.664-8.676 67.385-26.396 41.444-41.444 33.052-117.049-18.773-168.903-29.668-29.639-67.129-45.084-101.518-45.084-25.685 0-49.664 8.619-67.385 26.34-41.5 41.5-33.138 117.049 18.773 168.932 29.668 29.668 67.129 45.113 101.518 45.113zM207.701 290.162c34.389 0 71.822-15.445 101.49-45.113 51.883-51.883 60.274-127.431 18.83-168.932-17.778-17.721-41.7-26.34-67.413-26.34-34.389 0-71.879 15.445-101.547 45.113-51.826 51.826-60.217 127.431-18.773 168.903 17.692 17.692 41.7 26.368 67.413 26.368zM512.085 903.111c-133.291 0-241.721-108.459-241.721-241.806 0-8.164 0.398-16.27 1.166-24.263-15.047 5.177-30.777 7.794-46.876 7.794-59.022 0-111.73-35.186-134.343-89.657-14.905-35.868-14.905-75.378-0.057-111.275 14.99-36.039 42.951-63.972 78.82-78.734l45.454-18.29c-2.276 0.085-4.551 0.142-6.827 0.142-41.671 0-79.9-15.275-107.662-43.036-32.057-32.057-47.332-78.364-41.899-127.090 4.949-44.658 26.51-88.121 60.672-122.283 39.31-39.225 90.965-61.724 141.796-61.724 35.186 0 67.897 10.866 93.895 30.919 5.291-1.621 10.923-2.475 16.583-2.475h282.112c5.689 0 11.264 0.853 16.612 2.475 25.998-20.025 58.709-30.919 93.924-30.919 50.887 0 102.514 22.528 141.739 61.781 73.984 73.956 82.375 185.771 18.773 249.372-27.762 27.762-65.963 43.036-107.605 43.036-4.011 0-7.964-0.142-12.004-0.427l51.314 21.874c36.153 14.876 63.374 41.586 78.023 76.828 14.82 35.755 14.82 74.98 0.057 110.564-22.414 54.244-75.236 89.344-134.343 89.344-15.929 0-31.716-2.674-46.99-7.964 0.825 7.908 1.252 15.929 1.252 24.036 0 133.319-108.544 241.778-241.863 241.778z" />
<glyph unicode="&#xe919;" glyph-name="badge_sheriff" d="M511.63 846.222c24.519-15.872 43.378-26.852 56.178-32.142 36.779-20.622 71.538-31.118 104.875-31.118 12.828 0 32.37 3.556 58.709 11.691 30.834 9.671 57.685 22.272 80.498 38.144l88.604-103.595c-26.681-43.947-44.345-78.080-53.476-102.116-14.876-39.339-22.414-67.1-22.414-83.058 0-20.309 8.96-49.948 26.738-89.173 19.541-41.671 33.621-75.861 42.155-102.4 11.292-36.636 16.725-65.337 16.725-85.362 0-46.62-27.364-79.872-81.977-99.897-74.951-29.81-250.482-36.068-316.331-117.419-68.324 84.338-278.329 112.754-278.329 112.754-24.32 4.21-46.848 10.553-66.162 21.646-35.868 20.139-53.646 47.332-53.646 81.863 0 7.396 0.313 13.739 1.166 19.428 3.442 29.924 11.236 59.022 23.012 88.32 12.032 28.644 23.865 57.828 35.84 86.585 16.896 45.113 25.543 73.586 25.543 85.276 0 21.902-7.196 48.327-21.532 79.758-18.802 40.135-37.376 75.264-55.922 104.789l89.429 102.827c19.484-14.279 44.402-26.14 74.581-35.812 30.293-9.415 52.252-14.251 65.877-14.251 29.070 0 61.184 9.33 96.484 27.42 35.413 18.432 56.434 30.18 63.374 35.84zM382.293 272.64l129.621 68.039 129.735-68.039-24.718 144.014 104.875 102.514-145.18 21.020-64.683 131.442-64.768-131.442-145.095-21.020 104.903-102.514-24.69-144.014zM511.63 903.111c-12.572 0-25.116-4.153-35.442-12.402-2.816-1.991-13.596-8.732-54.158-29.838-27.079-13.909-50.83-21.020-70.258-21.020-1.166 0-12.459 0.341-48.981 11.719-24.036 7.68-43.634 16.924-57.828 27.335-10.098 7.396-21.902 11.008-33.621 11.008-15.929 0-31.744-6.684-42.923-19.541l-89.458-102.855c-16.441-18.916-18.546-46.336-5.262-67.556 16.64-26.539 34.361-59.733 52.565-98.674 12.601-27.62 15.844-44.516 16.156-54.073-0.74-4.153-4.267-19.74-21.532-65.963-5.092-12.174-10.126-24.405-15.189-36.665-6.684-16.327-13.397-32.626-20.167-48.782-14.279-35.47-23.012-68.949-27.022-103.026-1.109-7.964-1.621-16.498-1.621-26.738 0-38.827 14.364-93.127 82.716-131.47 22.756-13.056 49.664-22.073 84.252-28.075l2.076-0.341c72.647-9.927 202.524-43.719 241.778-92.16 10.78-13.369 27.022-21.106 44.203-21.106s33.422 7.737 44.231 21.077c32.54 40.192 120.036 58.652 190.35 73.472 38.116 8.021 74.155 15.644 102.059 26.624 103.14 38.144 118.556 112.185 118.556 153.031 0 26.596-6.286 59.961-19.2 102.087-9.643 29.867-24.292 65.564-45.056 109.824-20.309 44.857-21.362 62.037-21.362 65.024 0.028 1.394 0.853 15.673 18.716 62.919 5.632 14.791 18.716 43.008 48.924 92.757 12.743 20.992 10.553 47.787-5.404 66.475l-88.604 103.595c-11.179 13.084-27.136 19.911-43.264 19.911-11.264 0-22.613-3.328-32.512-10.212-17.579-12.26-39.452-22.5-64.996-30.521-27.989-8.647-39.652-9.102-41.7-9.102-23.239 0-48.441 7.822-77.028 23.836-1.963 1.109-4.039 2.105-6.116 2.987-5.973 2.475-18.972 9.188-46.99 27.335-9.444 6.087-20.167 9.102-30.891 9.102z" />
<glyph unicode="&#xe91a;" glyph-name="bag_paper" d="M967.111 846.222c0 21.077-11.662 40.391-30.265 50.261-8.363 4.437-17.493 6.628-26.624 6.628-11.207 0-22.329-3.3-31.943-9.813l-27.819-18.859-16.412 14.45c-10.581 9.358-24.007 14.222-37.604 14.222h-28.444c-13.596 0-27.022-4.864-37.604-14.222l-16.412-14.45-27.819 18.859c-9.614 6.514-20.764 9.813-31.943 9.813h-28.444c-11.833 0-23.58-3.669-33.508-10.923l-27.079-19.74-29.355 20.452c-9.756 6.798-21.134 10.212-32.512 10.212-11.179 0-22.357-3.3-32.028-9.87l-32.142-21.902-32.711 22.073c-9.614 6.457-20.708 9.7-31.801 9.7-11.036 0-22.101-3.214-31.659-9.643l-33.451-22.386-33.564 22.443c-9.557 6.4-20.594 9.586-31.63 9.586-11.008 0-22.016-3.186-31.602-9.586l-33.678-22.5-33.678 22.5c-9.529 6.372-20.537 9.586-31.602 9.586-9.188 0-18.404-2.219-26.823-6.713-18.517-9.899-30.066-29.184-30.066-50.176v-796.444c0-31.403 25.486-56.889 56.889-56.889h796.444c31.431 0 56.889 25.486 56.889 56.889v796.444zM625.778 49.778h-512v796.444l65.252-43.605 65.308 43.605 65.223-43.605 65.081 43.605 64.711-43.605 63.972 43.605 62.635-43.605 59.819 43.605v-796.444zM845.938 802.617l64.284 43.605v-772.75l-113.778 151.723v621.028l49.493-43.605zM782.222 196.75l110.222-146.972h-220.444l110.222 146.972zM654.222 846.222l64.284-43.605 49.493 43.605v-621.028l-113.778-151.723v772.75z" />
<glyph unicode="&#xe91b;" glyph-name="bag_shopping" d="M654.251 846.222c60.444 0 113.778-54.244 113.778-121.259v-20.964h-56.889v20.964c0 18.802-4.722 36.466-16.725 49.692-12.032 13.312-26.084 20.651-43.036 20.651s-29.753-7.339-41.756-20.651c-12.004-13.227-12.288-30.891-12.288-49.692v-20.964h-56.889v20.964c0.028 67.015 53.305 121.259 113.806 121.259zM369.778 846.222c60.444 0 113.778-54.244 113.778-121.259v-49.408h142.222v-625.778h-458.012c-29.156 0-53.988 24.092-53.988 53.476v572.302h142.222v49.408c0 67.015 53.333 121.259 113.778 121.259zM312.889 675.556h113.778v49.408c0 18.802-0.256 36.466-12.26 49.692-12.004 13.312-21.618 20.651-38.571 20.651-16.924 0-32.711-7.339-44.715-20.651-11.975-13.227-18.233-30.891-18.233-49.692v-49.408zM910.251 675.556v-572.302c0-29.383-24.946-53.476-54.073-53.476h-201.927v625.778h256zM654.251 903.111c-58.596 0-111.36-32.683-142.222-81.152-30.891 48.469-83.684 81.152-142.251 81.152-90.084 0-166.599-77.397-170.524-170.667h-85.476c-31.431 0-56.889-25.486-56.889-56.889v-572.302c0-60.843 49.778-110.364 110.876-110.364h458.041c4.892 0 9.671 0.626 14.222 1.792 4.494-1.166 9.273-1.792 14.222-1.792h201.927c61.184 0 110.962 49.522 110.962 110.364v572.302c0 31.403-25.486 56.889-56.889 56.889h-85.532c-3.897 93.269-80.356 170.667-170.468 170.667z" />
<glyph unicode="&#xe91c;" glyph-name="balloons" d="M158.009 615.595c0-8.021 0.768-16.27 2.105-24.661 27.335 98.276 101.291 177.18 196.551 211.314-3.755 0.199-7.538 0.569-11.378 0.569-103.481 0-187.278-83.826-187.278-187.221zM967.111 448c0 158.208-127.545 282.112-290.389 282.112-21.049 0-41.557-2.219-61.326-6.428-44.516 108.402-148.964 179.428-268.060 179.428-160.142 0-290.446-129.337-290.446-288.341 0-118.016 92.388-248.718 183.609-318.066l-24.889-51.484c-8.562-17.636-7.396-38.4 2.987-55.040 10.439-16.555 28.615-26.624 48.213-26.624h161.024c19.541 0 37.774 10.069 48.156 26.681 4.011 6.372 6.656 13.34 7.879 20.537 26.681-32.825 56.462-61.81 86.073-84.366l-25.060-51.911c-8.505-17.636-7.339-38.4 3.1-54.983 10.411-16.555 28.587-26.624 48.185-26.624h160.996c19.57 0 37.774 10.069 48.156 26.624 10.382 16.583 11.548 37.348 3.044 54.983l-25.657 53.362c80.953 63.801 184.405 196.665 184.405 320.142zM266.809 220.444l41.301 85.333h78.393l41.33-85.333h-161.024zM406.812 334.222h-121.202c-81.323 56.889-171.833 178.944-171.833 280.548 0 128.967 104.533 231.452 233.557 231.452 105.444 0 194.219-70.059 223.204-166.030-92.274-40.903-156.814-132.181-156.814-239.388 0-29.099 6.542-59.42 17.92-90.823-8.391-6.77-16.668-15.758-24.832-15.758zM596.167 49.778l41.159 85.333h78.734l41.102-85.333h-160.996zM735.545 163.556h-120.007c-81.436 56.889-172.316 177.749-172.316 279.609 0 128.939 104.476 230.059 233.472 230.059 128.967 0 233.529-96.284 233.529-225.223 0-101.86-94.606-227.556-174.677-284.444zM487.396 442.652c0-8.021 0.768-16.299 2.162-24.69 27.278 98.332 101.177 177.18 196.494 211.342-3.84 0.228-7.623 0.569-11.435 0.569-103.396 0-187.221-83.854-187.221-187.221z" />
<glyph unicode="&#xe91d;" glyph-name="bandaid" d="M497.636 462.279c-15.673 0-28.359-12.715-28.416-28.501 0-15.673 12.686-28.388 28.416-28.388s28.444 12.715 28.444 28.388c-0.028 15.787-12.715 28.501-28.444 28.501zM497.636 376.946c-15.673 0-28.416-12.772-28.416-28.388 0-15.787 12.743-28.501 28.416-28.501 15.73 0 28.444 12.715 28.444 28.501-0.028 15.616-12.715 28.388-28.444 28.388zM412.388 547.612c-15.73 0-28.416-12.715-28.473-28.444 0-15.73 12.743-28.444 28.473-28.444 15.673 0 28.388 12.715 28.388 28.444s-12.715 28.444-28.388 28.444zM412.274 462.279c-15.673 0-28.359-12.772-28.359-28.501 0-15.673 12.686-28.388 28.359-28.388 15.787 0 28.501 12.715 28.501 28.388 0 15.73-12.715 28.501-28.501 28.501zM582.94 490.724c15.673 0 28.444 12.715 28.444 28.388 0 15.73-12.772 28.501-28.444 28.501-15.701 0-28.388-12.772-28.444-28.501 0-15.673 12.743-28.388 28.444-28.388zM668.245 462.279c-15.758 0-28.444-12.772-28.444-28.444 0-15.73 12.686-28.501 28.444-28.501 15.73 0 28.444 12.772 28.444 28.501 0 15.673-12.715 28.444-28.444 28.444zM582.912 463.332c-16.242 0-29.44-13.17-29.44-29.44 0-16.327 13.198-29.554 29.468-29.554 16.299 0 29.468 13.227 29.468 29.497 0 16.327-13.17 29.497-29.497 29.497zM903.509 811.492l-28.245 28.217c-40.818 40.875-95.147 63.403-152.974 63.403-57.799 0-112.156-22.5-153.003-63.374l-82.916-80.668c-0.171-0.228-0.398-0.455-0.626-0.654l-269.938-270.080c-0.171-0.142-0.313-0.313-0.455-0.427-0.028-0.085-0.057-0.085-0.114-0.142l-95.403-97.621c-83.911-83.94-83.911-221.212 0.398-305.664l28.274-28.217c40.789-40.846 95.147-63.403 152.946-63.403 57.828 0 112.156 22.585 153.003 63.46l97.195 95.061c0.171 0.171 0.37 0.341 0.597 0.512l269.909 270.108c0.171 0.114 0.341 0.284 0.484 0.455l81.835 83.456c83.769 83.797 83.484 221.042-0.967 305.579zM414.208 96.569c-31.090-31.175-71.936-46.82-112.754-46.82-40.789 0-81.636 15.644-112.754 46.82l-28.217 28.16c-62.265 62.322-62.265 163.385 0 225.678l85.561 87.495 255.716-255.716-87.552-85.618zM521.984 202.155l-255.943 255.943 250.055 250.169 255.972-255.943-250.084-250.169zM863.829 545.735l-71.737-73.159-255.744 255.716 73.188 71.225c31.090 31.175 71.964 46.706 112.754 46.706 40.846 0 81.664-15.531 112.754-46.706l28.217-28.217c62.265-62.322 62.805-163.3 0.569-225.564zM497.636 632.946c-15.73 0-28.359-12.772-28.416-28.444 0-15.673 12.686-28.444 28.416-28.444s28.444 12.772 28.444 28.444c-0.028 15.673-12.715 28.444-28.444 28.444zM497.636 547.612c-15.673 0-28.416-12.772-28.416-28.444 0-15.73 12.743-28.444 28.416-28.444 15.73 0 28.444 12.715 28.444 28.444-0.028 15.673-12.715 28.444-28.444 28.444zM582.969 376.946c-15.73 0-28.501-12.772-28.501-28.444 0-15.73 12.772-28.501 28.501-28.501 15.701 0 28.388 12.772 28.388 28.501 0 15.673-12.686 28.444-28.388 28.444z" />
<glyph unicode="&#xe91e;" glyph-name="bar_graph_alt" d="M910.222 49.778h-113.778v796.444h113.778v-796.444zM739.556 49.778h-113.778v654.222h113.778v-654.222zM568.889 49.778h-113.778v540.444h113.778v-540.444zM398.222 49.778h-113.778v398.222h113.778v-398.222zM227.556 49.778h-113.778v256h113.778v-256zM910.222 903.111h-113.778c-31.403 0-56.889-25.486-56.889-56.889v-85.333h-113.778c-31.403 0-56.889-25.486-56.889-56.889v-56.889h-113.778c-31.403 0-56.889-25.486-56.889-56.889v-85.333h-113.778c-31.403 0-56.889-25.486-56.889-56.889v-85.333h-113.778c-31.403 0-56.889-25.486-56.889-56.889v-256c0-31.403 25.486-56.889 56.889-56.889h796.444c31.403 0 56.889 25.486 56.889 56.889v796.444c0 31.403-25.486 56.889-56.889 56.889z" />
<glyph unicode="&#xe91f;" glyph-name="bar_graph" d="M910.222 49.778h-227.556v796.444h227.556v-796.444zM625.778 49.778h-227.556v625.778h227.556v-625.778zM341.333 49.778h-227.556v426.667h227.556v-426.667zM910.222 903.111h-227.556c-31.403 0-56.889-25.486-56.889-56.889v-113.778h-227.556c-31.403 0-56.889-25.486-56.889-56.889v-142.222h-227.556c-31.403 0-56.889-25.486-56.889-56.889v-426.667c0-31.403 25.486-56.889 56.889-56.889h796.444c31.403 0 56.889 25.486 56.889 56.889v796.444c0 31.403-25.486 56.889-56.889 56.889z" />
<glyph unicode="&#xe920;" glyph-name="barn_silo" d="M782.194 903.111c-101.945 0-184.86-87.040-184.86-193.991v-40.96l-13.682 15.986c-10.809 12.601-26.596 19.854-43.207 19.854h-256c-16.612 0-32.398-7.253-43.207-19.854l-170.667-199.111c-8.818-10.325-13.682-23.438-13.682-37.035v-398.222c0-31.403 25.486-56.889 56.889-56.889h796.444c31.403 0 56.889 25.486 56.889 56.889v660.196c0 106.496-82.944 193.138-184.917 193.138zM427.52 206.222l141.369 141.34v-282.652l-141.369 141.312zM412.444 221.326l-141.369 141.34h282.709l-141.34-141.34zM256 79.957v267.605l141.369-141.34-141.369-141.34v15.076zM286.18 49.778h-15.104l141.369 141.34 141.369-141.34h-267.634zM711.111 49.778h-113.778v341.333h-369.778v-341.333h-113.778v398.222l170.667 199.111h256l170.667-199.111v-398.222zM910.222 49.778h-170.667v408.121l-85.333 95.204v122.453h256v-625.778zM910.222 704h-256v5.092c0 74.297 57.316 137.131 127.972 137.131 70.684 0 128.028-61.952 128.028-136.249v-5.973z" />
<glyph unicode="&#xe921;" glyph-name="baseball" d="M512 903.111c-250.937 0-455.111-204.174-455.111-455.111 0-250.965 204.174-455.111 455.111-455.111 250.965 0 455.111 204.174 455.111 455.111s-204.174 455.111-455.111 455.111zM898.532 541.781c-8.107-5.092-14.052-12.914-17.266-21.931-10.325 0.484-20.537 1.451-30.549 2.93-2.276 16.242-13.938 30.407-30.891 35.129-16.953 4.636-34.247-1.508-44.629-14.507-9.301 3.925-18.375 8.277-27.25 13.056 3.556 16.128-2.56 33.65-16.953 43.918-14.336 10.012-32.512 10.126-46.535 1.764-7.481 6.855-14.564 14.080-21.305 21.618 8.533 13.966 8.676 32.313-1.223 46.45-10.069 14.478-27.278 20.878-43.406 17.778-4.665 8.903-8.846 18.005-12.629 27.392 13.028 10.098 19.484 27.392 14.933 44.373-4.295 17.067-18.404 28.956-34.759 31.374-1.308 10.069-2.105 20.224-2.446 30.549 7.708 2.617 14.564 7.14 19.627 13.397 145.636-34.219 260.153-148.025 295.282-293.291zM583.481 839.452c4.779-0.853 9.387-2.076 14.108-3.129-4.693 0.91-9.387 1.792-14.108 2.645v0.484zM555.264 843.804c0-0.256 0-0.512-0.028-0.768-7.851 0.882-15.73 1.82-23.751 2.219 7.964-0.37 15.929-0.654 23.78-1.451zM512 49.778c-214.784 0-389.404 170.183-397.454 383.061 1.764 0.597 3.556 1.138 5.205 1.991 15.73 7.566 24.889 23.58 24.405 39.993 9.472 3.157 19.172 5.746 29.013 7.993 7.964-14.45 23.922-23.495 41.472-21.817 2.532 0.37 4.807 0.683 6.997 1.28 13.995 3.755 24.661 14.592 29.156 27.932 10.325-0.313 20.537-1.052 30.635-2.361 2.617-16.185 14.45-30.208 31.317-34.617 7.282-1.849 14.876-1.593 21.732 0.256 8.846 2.361 16.498 7.765 22.158 15.019 9.529-3.783 18.802-7.964 27.847-12.629-3.157-16.1 3.356-33.422 17.892-43.292 10.837-7.424 23.609-8.96 35.129-5.86 4.011 1.081 7.68 2.987 11.207 5.12 7.68-6.77 14.99-13.938 21.988-21.476-8.334-14.165-8.107-32.37 2.020-46.62 10.325-14.194 27.648-19.968 43.861-16.469 4.836-8.846 9.244-17.948 13.198-27.25-12.942-10.411-19.115-27.904-14.279-44.942 4.722-16.839 19.001-28.444 35.328-30.635 1.479-9.899 2.503-19.94 3.015-30.123-15.531-5.49-27.051-19.598-28.245-36.978-1.195-17.607 8.22-33.308 22.727-40.903-1.991-9.984-4.58-19.74-7.538-29.383-16.441 0.171-32.228-9.244-39.31-25.145-1.621-3.698-2.532-7.595-3.072-11.435 4.551-0.171 9.017-0.711 13.596-0.711zM581.12 56.434c-2.361 7.964-7.083 15.189-13.625 20.679 3.584 11.605 6.798 23.41 9.188 35.527 0.768 0.171 1.678 0 2.389 0.199 17.067 4.636 30.094 19.598 31.545 38.258 1.337 19.541-10.78 36.921-28.359 43.207-0.569 12.231-1.792 24.292-3.641 36.153 15.957 9.671 24.263 29.013 18.916 47.929-5.319 18.745-22.3 30.748-40.846 30.834-4.75 11.349-10.126 22.386-16.043 33.081 11.548 14.564 12.743 35.584 1.422 51.371-11.492 16.1-32.057 21.589-49.607 14.99-8.192 8.875-16.782 17.323-25.884 25.316 6.059 17.721 0.228 37.916-16.043 49.067-16.128 11.008-37.035 9.244-51.371-2.674-10.752 5.66-21.988 10.638-33.422 15.132-0.284 18.631-12.743 35.499-31.687 40.42-19.001 4.949-38.258-3.84-47.474-20.053-11.947 1.564-24.036 2.56-36.324 2.844-6.628 17.55-24.178 29.184-43.804 27.335-19.655-1.849-34.674-16.725-37.831-35.271-11.975-2.674-23.666-6.002-35.157-9.899-4.068 4.608-8.676 8.59-14.108 11.122 30.692 189.412 194.532 334.222 392.647 334.222 6.542 0 12.942-0.683 19.371-0.996 3.982-9.33 10.78-17.18 19.883-21.732 1.166-0.626 2.674-0.626 3.897-1.052 0.37-12.487 1.394-24.718 3.044-36.807-16.1-9.33-24.775-28.501-19.655-47.388 3.044-12.373 11.548-22.016 22.244-27.364 5.518-2.759 11.634-3.812 17.948-3.954 4.551-11.52 9.614-22.812 15.36-33.65-11.833-14.421-13.34-35.328-2.389-51.285 4.238-6.258 9.785-10.951 15.9-13.995 10.24-5.12 22.357-6.002 33.394-2.133 8.021-9.017 16.498-17.579 25.458-25.714-6.485-17.636-0.91-38.059 15.104-49.493 1.877-1.28 3.954-2.276 5.717-3.157 14.905-7.452 32.455-5.12 45.198 5.006 10.923-6.002 22.244-11.321 33.849-16.1 0.171-15.815 8.789-30.635 23.097-37.774 2.304-1.138 4.949-2.162 7.396-3.044 19.086-5.291 38.514 3.243 48.071 19.314 11.833-1.764 23.836-2.93 36.039-3.47 3.726-10.553 11.435-19.115 21.191-24.007 2.247-1.109 4.722-1.707 7.168-2.418 0.256-5.689 0.939-11.236 0.939-17.010 0-196.267-142.222-358.77-329.102-391.566z" />
<glyph unicode="&#xe922;" glyph-name="basketball" d="M512 903.111c-251.364 0-455.111-203.748-455.111-455.111s203.748-455.111 455.111-455.111c251.364 0 455.111 203.748 455.111 455.111s-203.748 455.111-455.111 455.111zM901.234 532.48c-76.772-0.996-150.841 23.467-208.27 74.439l111.474 111.417c49.92-53.959 82.204-118.386 96.796-185.856zM783.588 739.271l-111.644-111.616c-52.708 57.486-78.364 132.295-77.852 210.034 68.921-14.421 134.628-47.218 189.497-98.418zM535.268 845.54c-2.361-95.687 28.985-188.757 94.948-259.584l-65.422-65.479-265.842 263.993c71.652 45.397 154.567 65.849 236.316 61.070zM230.457 729.628c13.824 13.852 28.501 26.453 43.776 37.831l269.71-267.861-65.479-65.479c-96 87.694-231.737 112.469-359.566 77.113 12.8 79.957 49.92 156.757 111.559 218.396zM113.778 448.028c113.948 38.77 237.198 21.333 322.93-55.666l-215.893-215.95c-71.31 76.487-107.065 173.995-107.036 271.616zM534.101 145.806c-1.849-32.654-8.306-64.853-18.631-96.028-98.247-0.825-196.665 34.475-273.778 105.87l215.95 215.979c54.158-59.648 81.237-139.236 76.459-225.82zM793.657 166.4c-60.7-60.7-136.107-97.65-214.756-110.933 7.652 28.501 12.459 57.628 14.080 87.125 5.746 103.652-27.477 199.14-93.611 270.763l65.479 65.479 268.316-266.496c-11.776-16.043-24.974-31.46-39.509-45.938zM585.728 499.655l65.508 65.536c70.94-64.256 163.328-94.35 258.162-91.392 5.262-81.721-14.564-164.722-59.42-236.544l-264.249 262.4z" />
<glyph unicode="&#xe923;" glyph-name="battery_charge" d="M950.443 662.528c22.215 22.244 22.215 58.226 0 80.441l-143.445 143.445c-11.122 11.15-25.657 16.697-40.22 16.697s-29.099-5.547-40.22-16.668l-17.948-17.892c-23.381 17.806-53.646 27.762-85.276 27.762-37.461 0-73.017-14.023-97.564-38.514l-430.308-430.336c-24.491-24.434-38.571-60.018-38.571-97.536 0-37.547 14.052-73.131 38.599-97.678l200.789-200.789c24.434-24.519 60.018-38.571 97.564-38.571s73.131 14.052 97.621 38.571l430.279 430.279c24.491 24.491 38.542 60.075 38.571 97.564 0 31.659-10.012 61.895-27.819 85.276l17.948 17.948zM881.522 616.732c29.212-29.184 29.184-85.561 0-114.745l-430.279-430.279c-14.62-14.62-35.982-21.931-57.401-21.931-21.362 0-42.752 7.31-57.344 21.931l-200.818 200.818c-29.212 29.184-29.212 85.589 0 114.745l430.279 430.279c14.62 14.564 35.982 21.874 57.372 21.874s42.809-7.31 57.401-21.874l28.7-28.672 57.344 57.344 143.445-143.445-57.372-57.344 28.672-28.7zM640.171 776.988c-2.446 2.418-8.789 5.063-16.839 5.063s-14.364-2.617-16.782-5.063l-430.308-430.308c-2.475-2.446-5.12-8.761-5.12-16.782 0-8.050 2.645-14.364 5.092-16.811l200.818-200.818c2.475-2.475 8.789-5.148 16.811-5.148 8.078 0 14.336 2.645 16.782 5.092l430.336 430.308c2.446 2.446 5.12 8.761 5.12 16.811 0 8.021-2.645 14.336-5.092 16.782l-200.818 200.875zM621.767 391.396l-320.626-37.148 192.028 90.396-48.754 67.129 169.131 76.743 85.874-87.495-151.552-35.271 73.899-74.354z" />
<glyph unicode="&#xe924;" glyph-name="battery_empty" d="M950.443 662.528c22.215 22.244 22.215 58.226 0 80.441l-143.445 143.445c-11.122 11.15-25.657 16.697-40.22 16.697s-29.099-5.547-40.22-16.668l-17.948-17.892c-23.381 17.806-53.618 27.762-85.276 27.762-37.433 0-72.988-14.023-97.564-38.514l-430.279-430.336c-24.491-24.434-38.599-60.018-38.599-97.536 0-37.547 14.052-73.131 38.599-97.678l200.789-200.789c24.434-24.519 60.046-38.571 97.593-38.571 37.518 0 73.131 14.052 97.621 38.571l430.279 430.279c24.491 24.491 38.542 60.075 38.542 97.564 0 31.659-10.012 61.895-27.79 85.276l17.92 17.948zM881.55 616.732c29.212-29.184 29.156-85.561 0-114.745l-430.279-430.279c-14.62-14.62-36.011-21.931-57.401-21.931-21.362 0-42.752 7.31-57.372 21.931l-200.789 200.818c-29.212 29.184-29.212 85.589 0 114.745l430.279 430.279c14.62 14.564 35.954 21.874 57.344 21.874s42.837-7.31 57.401-21.874l28.729-28.672 57.316 57.344 143.445-143.445-57.344-57.344 28.672-28.7zM640.171 776.96c-2.446 2.418-8.789 5.092-16.839 5.092s-14.336-2.645-16.782-5.092l-430.251-430.279c-2.503-2.446-5.12-8.761-5.12-16.782 0-8.050 2.617-14.364 5.063-16.811l200.818-200.846c2.503-2.446 8.789-5.12 16.839-5.12s14.336 2.645 16.782 5.092l430.336 430.336c2.446 2.446 5.12 8.732 5.12 16.811 0 8.021-2.674 14.308-5.12 16.754l-200.846 200.846zM393.899 135.68l-194.219 194.19 423.708 423.708 194.19-194.19-423.68-423.708z" />
<glyph unicode="&#xe925;" glyph-name="battery_full" d="M950.443 662.528c22.215 22.244 22.215 58.226 0 80.441l-143.445 143.445c-11.122 11.15-25.657 16.697-40.22 16.697s-29.099-5.547-40.22-16.668l-17.948-17.892c-23.381 17.806-53.646 27.762-85.276 27.762-37.461 0-73.017-14.023-97.564-38.514l-430.308-430.336c-24.491-24.434-38.571-60.018-38.571-97.536 0-37.547 14.052-73.131 38.599-97.678l200.789-200.789c24.434-24.519 60.018-38.571 97.564-38.571s73.131 14.052 97.621 38.571l430.279 430.279c24.491 24.491 38.542 60.075 38.571 97.564 0 31.659-10.012 61.895-27.819 85.276l17.948 17.948zM881.522 616.732c29.212-29.184 29.184-85.561 0-114.745l-430.279-430.279c-14.62-14.62-35.982-21.931-57.401-21.931-21.362 0-42.752 7.31-57.344 21.931l-200.818 200.818c-29.212 29.184-29.212 85.589 0 114.745l430.279 430.279c14.62 14.564 35.982 21.874 57.372 21.874s42.809-7.31 57.401-21.874l28.7-28.672 57.344 57.344 143.445-143.445-57.372-57.344 28.672-28.7zM640.171 776.96c-2.446 2.418-8.789 5.092-16.839 5.092s-14.364-2.645-16.782-5.092l-430.308-430.279c-2.446-2.446-5.092-8.761-5.092-16.782 0-8.050 2.645-14.364 5.063-16.811l200.846-200.846c2.475-2.446 8.789-5.12 16.811-5.12 8.078 0 14.336 2.645 16.782 5.092l430.308 430.336c2.475 2.446 5.12 8.732 5.12 16.811 0 8.021-2.645 14.336-5.063 16.754l-200.846 200.846z" />
<glyph unicode="&#xe926;" glyph-name="battery_half" d="M950.443 662.528c22.215 22.244 22.215 58.226 0 80.441l-143.445 143.445c-11.122 11.15-25.657 16.697-40.22 16.697s-29.099-5.547-40.22-16.668l-17.948-17.892c-23.381 17.806-53.646 27.762-85.276 27.762-37.461 0-73.017-14.023-97.564-38.514l-430.308-430.336c-24.491-24.434-38.571-60.018-38.571-97.536 0-37.547 14.052-73.131 38.599-97.678l200.789-200.789c24.434-24.519 60.018-38.571 97.564-38.571s73.131 14.052 97.621 38.571l430.279 430.279c24.491 24.491 38.542 60.075 38.571 97.564 0 31.659-10.012 61.895-27.819 85.276l17.948 17.948zM881.522 616.732c29.212-29.184 29.184-85.561 0-114.745l-430.279-430.279c-14.62-14.62-35.982-21.931-57.401-21.931-21.362 0-42.752 7.31-57.344 21.931l-200.818 200.818c-29.212 29.184-29.212 85.589 0 114.745l430.279 430.279c14.62 14.564 35.982 21.874 57.372 21.874s42.809-7.31 57.401-21.874l28.7-28.672 57.344 57.344 143.445-143.445-57.372-57.344 28.672-28.7zM640.171 776.96c-2.446 2.418-8.789 5.092-16.839 5.092s-14.364-2.645-16.782-5.092l-430.308-430.279c-2.475-2.446-5.12-8.761-5.12-16.782 0-8.050 2.645-14.364 5.092-16.811l200.846-200.846c2.446-2.446 8.761-5.12 16.782-5.12 8.107 0 14.336 2.645 16.782 5.092l430.336 430.336c2.446 2.446 5.12 8.761 5.12 16.811 0 8.021-2.645 14.336-5.092 16.782l-200.818 200.818zM734.407 476.217h-388.352l277.333 277.333 194.19-194.19-83.172-83.143z" />
<glyph unicode="&#xe927;" glyph-name="beaker" d="M954.652 219.705c-1.024 3.015-2.304 5.973-3.812 8.789-1.052 1.906-103.708 192.484-268.146 463.047v12.459c31.403 0 56.889 25.486 56.889 56.889v85.333c0 31.403-25.486 56.889-56.889 56.889h-341.333c-31.431 0-56.889-25.486-56.889-56.889v-85.333c0-31.403 25.458-56.889 56.889-56.889v-12.487c-164.494-270.649-267.179-461.767-268.231-463.673-1.508-2.816-2.759-5.717-3.783-8.732-21.049-62.492-15.218-123.278 15.986-166.741 27.534-38.372 72.078-59.477 125.383-59.477h602.539c53.22 0 97.707 21.134 125.269 59.534 31.346 43.662 37.234 104.619 16.128 167.282zM341.333 846.222h341.333v-85.333h-341.333v85.333zM813.255 49.778h-602.539c-84.793 0-114.005 72.363-87.438 151.154 0 0 104.505 194.901 274.944 474.624v56.889h227.584v-56.889c170.439-279.694 274.916-474.027 274.916-474.027 26.567-78.82-2.645-151.751-87.467-151.751zM704.256 448h-383.886c-86.5-151.438-135.054-249.6-144.213-268.373-7.765-25.003-7.225-48.697 1.593-60.9 5.746-7.993 16.839-12.060 32.967-12.060h602.539c16.014 0 27.079 4.096 32.853 12.146 8.903 12.43 9.529 36.267 1.707 61.468-9.045 18.603-57.316 116.508-143.559 267.719zM298.695 163.556c-23.58 0-42.667 19.115-42.667 42.61 0 23.609 19.086 42.724 42.667 42.724s42.667-19.115 42.667-42.724c0-23.495-19.086-42.61-42.667-42.61zM384.028 277.333c-23.58 0-42.667 19.172-42.667 42.724 0 23.495 19.086 42.61 42.667 42.61 23.552 0 42.667-19.115 42.667-42.61 0-23.552-19.115-42.724-42.667-42.724z" />
<glyph unicode="&#xe928;" glyph-name="bear_head" d="M300.601 313.145c-4.551 0-8.846-1.678-12.089-4.722-6.713-6.4-6.713-16.725 0-23.068 3.243-3.1 7.68-4.665 12.117-4.665s8.875 1.564 12.117 4.665c3.243 3.044 5.006 7.168 5.006 11.492 0 4.38-1.764 8.448-5.006 11.548-3.214 3.072-7.538 4.75-12.146 4.75zM443.819 627.541c-29.355 0-53.134-22.613-53.134-50.546 0-27.961 23.78-50.631 53.134-50.631 29.326 0 53.134 22.67 53.134 50.631 0 27.932-23.808 50.546-53.134 50.546zM245.248 260.409c-4.58 0-8.903-1.678-12.089-4.779-6.684-6.343-6.684-16.668 0-23.068 3.214-3.072 7.652-4.608 12.089-4.608s8.875 1.536 12.117 4.608c6.713 6.4 6.713 16.725 0 23.068-3.243 3.129-7.538 4.779-12.117 4.779zM248.491 362.866c-4.608 0-8.903-1.764-12.174-4.779-6.628-6.343-6.628-16.725 0-23.097 3.271-3.044 7.708-4.58 12.146-4.58s8.903 1.536 12.146 4.58c6.656 6.372 6.656 16.754 0 23.097-3.271 3.015-7.566 4.779-12.117 4.779zM580.181 627.541c-29.326 0-53.134-22.613-53.134-50.546 0-27.961 23.808-50.631 53.134-50.631 29.355 0 53.134 22.67 53.134 50.631 0.028 27.932-23.751 50.546-53.134 50.546zM778.78 260.409c-4.58 0-8.875-1.678-12.117-4.779-6.713-6.343-6.713-16.668 0-23.068 3.243-3.072 7.68-4.608 12.117-4.608s8.875 1.536 12.089 4.608c6.684 6.4 6.684 16.725 0 23.068-3.186 3.129-7.509 4.779-12.089 4.779zM895.744 574.521c35.356 35.584 55.495 83.058 55.495 133.945 0 107.122-90.254 194.276-201.188 194.276-51.94 0-101.518-19.541-138.581-53.561-29.838 4.921-63.118 7.936-98.076 8.761-0.455 0.028-0.91 0.028-1.394 0.028-0.455 0-0.91 0-1.394-0.028-34.958-0.825-68.238-3.84-98.076-8.761-37.063 34.020-86.642 53.561-138.581 53.561-110.933 0-201.188-87.154-201.188-194.276 0-50.887 20.139-98.361 55.524-133.973-112.782-268.004-67.271-382.805-28.444-428.089 86.073-100.608 283.193-146.66 394.667-153.088 1.109-0.057 2.19-0.114 3.271-0.114h28.444c1.081 0 2.162 0.057 3.271 0.114 111.474 6.428 308.622 52.48 394.724 153.116 38.77 45.255 84.281 160.085-28.473 428.089zM881.010 183.41c-66.020-77.198-227.271-122.823-340.708-132.153v285.781c38.741 13.227 98.475 29.156 98.56 37.177 0.37 32-69.973 73.444-126.834 73.444-56.917 0-127.204-41.444-126.891-73.444 0.085-7.993 59.705-23.95 98.418-37.177v-285.81c-113.38 9.358-274.489 55.012-340.537 132.181-80.981 94.492 29.156 351.659 54.983 408.434-40.988 24.235-68.352 67.356-68.352 116.622 0 75.89 64.597 137.387 144.299 137.387 48.924 0 92.103-23.211 118.187-58.709 32.768 7.822 74.325 12.828 119.865 13.938 45.568-1.109 87.097-6.116 119.865-13.938 26.084 35.499 69.319 58.709 118.187 58.709 79.701 0 144.299-61.497 144.299-137.387 0-49.266-27.364-92.388-68.324-116.622 25.828-56.775 135.936-313.913 54.983-408.434zM723.428 313.145c-4.608 0-8.932-1.678-12.146-4.722-3.243-3.1-5.006-7.168-5.006-11.548 0-4.324 1.764-8.448 5.006-11.492 3.214-3.1 7.68-4.665 12.117-4.665s8.875 1.564 12.117 4.665c6.713 6.343 6.713 16.668 0 23.068-3.271 3.015-7.538 4.693-12.089 4.693zM775.566 330.411c4.437 0 8.875 1.536 12.174 4.608 6.599 6.343 6.599 16.725 0 23.068-3.271 3.044-7.595 4.779-12.203 4.779-4.523 0-8.846-1.735-12.117-4.779-6.628-6.343-6.628-16.725 0-23.068 3.271-3.072 7.708-4.608 12.146-4.608z" />
<glyph unicode="&#xe929;" glyph-name="beer_bottle" d="M937.557 779.463l-93.952 93.924c-16.185 16.185-38.201 25.486-60.331 25.486-20.338 0-39.424-7.737-53.76-21.732-10.951-11.008-17.863-24.548-20.821-38.884-0.484-0.398-0.967-0.796-1.451-1.166l-166.571-140.26c-12.658 2.133-25.316 3.214-37.888 3.214-52.025 0-99.612-18.916-133.973-53.305l-272.612-272.583c-22.556-22.5-34.987-53.504-34.958-87.211 0-40.050 17.522-80.526 48.071-110.962l130.759-130.788c30.521-30.521 70.969-48.014 111.047-48.014 33.621 0 64.569 12.43 87.097 34.93l272.668 272.668c43.52 43.548 61.355 106.126 50.176 171.861l140.146 166.542c0.341 0.427 0.683 0.853 1.024 1.252 14.734 2.958 28.103 10.041 38.713 20.708 30.379 30.777 28.843 82.034-3.385 114.318zM217.657 415.175l150.556 150.556 261.604-261.632-150.556-150.556-261.604 261.632zM398.023 72.306c-12.316-12.316-29.013-18.29-46.905-18.29-24.036 0-50.204 10.752-70.827 31.374l-130.816 130.844c-35.982 35.897-41.87 88.917-13.056 117.703l61.127 61.127 261.604-261.604-61.127-61.156zM699.136 491.349c16.782-54.244 8.078-109.824-28.473-146.404l-20.736-20.736-261.604 261.632 20.736 20.679c24.633 24.661 57.998 36.636 93.724 36.636 17.237 0 35.015-2.759 52.651-8.277l188.444 158.663 113.778-113.778-158.521-188.416zM900.551 705.166c-3.641-3.669-8.647-5.404-13.966-5.404-6.884 0-14.279 2.987-20.082 8.761l-93.867 93.895c-10.268 10.24-11.748 25.6-3.328 34.048 3.726 3.641 8.732 5.518 13.966 5.518 6.912 0 14.336-3.072 20.11-8.846l93.895-93.838c10.24-10.268 11.748-25.543 3.271-34.133z" />
<glyph unicode="&#xe92a;" glyph-name="beer_mug" d="M567.95 846.222c25.486 0 50.944-9.728 70.4-29.156 16.1-16.128 25.145-36.38 27.904-57.316 9.131 2.247 18.489 3.385 27.847 3.385 28.956 0 57.828-10.866 79.957-32.967 30.436-30.436 39.509-73.728 28.217-112.299 2.901 0.228 5.831 0.341 8.732 0.341 25.372 0 50.688-9.358 70.059-28.7 38.884-38.912 38.884-101.945 0-140.8-19.484-19.428-44.942-29.156-70.428-29.156s-50.972 9.728-70.428 29.156c-24.206 24.235-33.308 57.828-27.364 89.088-6.457-1.109-12.999-1.65-19.541-1.65-29.042 0-58.055 10.951-80.213 33.138-21.845 21.817-32.796 50.347-33.195 78.962-4.096-0.512-8.192-0.74-12.316-0.74-25.401 0-50.688 9.415-70.059 28.757-38.884 38.912-38.884 101.945 0 140.8 19.456 19.428 44.914 29.156 70.428 29.156zM351.659 765.241c14.535 0 29.099-5.547 40.22-16.668l60.359-60.331c8.306-8.334 22.841-31.403 25.202-33.764 8.932-8.96 19.172-16.043 30.066-21.845l-279.979-280.007 20.11-20.11 288.825 288.882c5.973-1.479 12.004-2.788 18.204-3.385 5.66-26.596 18.83-50.972 38.372-70.542l-280.149-280.178 20.11-20.11 282.368 282.368c20.167-13.369 43.292-21.476 67.812-23.182 0.939-11.008 3.755-21.646 7.452-31.943l-292.437-292.466 20.11-20.11 285.554 285.525c4.75-7.253 10.012-14.222 16.27-20.48 13.028-13.056 28.501-22.613 45.284-28.956l-326.997-326.855c-14.052-14.080-32.085-21.305-49.152-21.305-14.108 0-27.563 4.921-37.604 14.962l-221.269 221.212c-22.187 22.215-19.342 61.099 6.343 86.756l54.044 54.044-60.388 60.359c-22.187 22.215-22.187 58.226 0 80.441l181.020 180.992c11.122 11.15 25.685 16.697 40.249 16.697zM230.969 467.029l181.049 180.992-60.416 60.331-180.992-180.992 60.359-60.331zM567.95 903.111c-41.813 0-81.095-16.27-110.649-45.824-16.725-16.725-29.212-36.58-36.892-58.254-19.655 14.99-43.605 23.097-68.75 23.097-30.407 0-58.965-11.833-80.469-33.337l-181.020-180.992c-44.316-44.345-44.316-116.537-0.028-160.853l20.196-20.167-13.824-13.824c-22.073-21.988-35.442-50.688-37.632-80.754-2.389-32.626 8.988-64.142 31.26-86.414l221.269-221.241c20.423-20.423 48.043-31.659 77.852-31.659 32.711 0 65.28 13.824 89.401 38.002l326.969 326.855c1.564 1.564 2.987 3.186 4.352 4.921h0.654c41.785 0 81.067 16.27 110.62 45.824 29.525 29.497 45.824 68.75 45.824 110.592s-16.27 81.095-45.824 110.649c-16.64 16.668-36.494 29.042-58.197 36.636-3.669 38.798-20.508 75.719-48.811 104.021-29.127 29.127-67.129 46.393-108.032 49.209-7.196 13.824-16.441 26.453-27.648 37.689-29.582 29.554-68.836 45.824-110.62 45.824z" />
<glyph unicode="&#xe92b;" glyph-name="bell" d="M967.054 251.25c-0.597 14.364-6.514 27.364-15.815 37.063-10.183 10.638-21.504 21.817-33.223 33.308-37.063 36.466-93.127 91.563-93.127 124.928v112.327c-0.683 136.192-89.941 257.991-215.467 298.894-22.5 28.501-57.799 45.34-97.877 45.34-40.846 0-75.634-15.9-97.792-43.634-125.127-40.875-214.016-163.328-214.642-300.316v-112.612c0-33.365-56.064-88.462-93.127-124.956-11.748-11.492-23.040-22.67-33.223-33.308-9.33-9.7-15.246-22.699-15.815-37.063-0.057-0.882-0.057-1.82-0.057-2.759v-56.462c0-31.403 25.486-56.889 56.889-56.889h217.543c25.372-83.342 98.844-142.222 180.224-142.222 81.408 0 154.852 58.88 180.167 142.222h218.51c31.403 0 56.889 25.486 56.889 56.889v56.462c0 0.939 0 1.877-0.057 2.788zM256 446.549v112.327c0.54 113.778 77.653 224.284 194.389 251.847 10.041 23.836 33.65 35.499 61.156 35.499 27.477 0 51.058-13.34 61.184-37.177 116.708-27.591 194.674-136.391 195.271-250.169v-112.327c0-58.652 61.867-117.988 113.92-169.216h-739.84c52.053 51.228 113.92 110.592 113.92 169.216zM511.545 49.778c-62.521 0-114.773 49.948-128.91 113.778h257.764c-14.080-63.829-66.361-113.778-128.853-113.778zM910.222 192h-796.444v56.889h796.444v-56.889z" />
<glyph unicode="&#xe92c;" glyph-name="bicycle" d="M339.598 432.697c29.952-5.148 57.401-17.237 80.896-34.418l-46.962 112.981-33.934-78.564zM306.716 347.193c-57.543 0-104.448-46.876-104.448-104.476s46.905-104.448 104.448-104.448c57.657 0 104.505 46.82 104.505 104.448 0 57.6-46.848 104.476-104.505 104.476zM806.628 475.876l-97.906 234.638 45.113 45.113c24.775 24.633 32.199 61.611 18.716 94.123-13.369 32.427-44.686 53.362-79.787 53.362h-191.744c-47.644 0-86.443-38.286-86.443-85.333s38.798-85.333 86.443-85.333h19.285c0.085-9.472 1.792-19.058 5.262-28.444h-77.568c0 18.574-5.262 36.722-14.876 51.115-14.478 21.76-37.575 34.219-63.317 34.219h-113.778c-44.572 0-78.222-36.665-78.222-85.333 0-46.336 30.549-81.835 71.993-85.077l21.931-39.908-37.604-96.057c-104.476-31.403-177.237-127.346-177.237-239.588 0-137.956 112.1-250.169 249.828-250.169 84.907 0 160.028 42.524 205.227 107.349 45.141-65.024 120.377-107.691 205.34-107.691 137.756 0 249.828 112.071 249.828 249.828 0 104.619-64.654 196.636-160.484 233.188zM717.284 49.749c-106.61 0-192.939 86.386-192.939 192.967 0 100.58 76.942 183.125 175.161 192.085l-21.39 50.859-210.29-136.96c20.082-30.407 31.915-66.674 31.915-105.842 0-106.581-86.414-192.768-193.024-192.768-106.553 0-192.939 86.727-192.939 193.28 0 96.171 70.4 176.27 162.389 190.976l58.226 148.736-50.773 92.473h-27.591c-28.444 0-28.444 56.889 0 56.889h113.778c28.444 0 28.444-56.889 0-56.889h-17.977l16.014-28.444h244.224l-32.569 75.236c-4.608 11.036-2.105 21.817 6.343 30.265l35.669 36.722h-120.462c-16.327 0-29.554 12.174-29.554 28.444 0 16.299 13.227 28.444 29.554 28.444h191.744c11.89 0 22.67-7.168 27.221-18.204 4.551-11.008 2.048-23.751-6.4-32.142l-72.050-72.078 122.709-294.116c83.769-21.020 145.948-96.626 145.948-186.994 0-106.553-86.386-192.939-192.939-192.939zM401.323 590.222l72.562-164.523 180.907 120.519-17.835 44.004zM717.284 347.193c-57.6 0-104.505-46.876-104.505-104.476s46.876-104.448 104.505-104.448 104.448 46.82 104.448 104.448c0 57.6-46.848 104.476-104.448 104.476z" />
<glyph unicode="&#xe92d;" glyph-name="big_gulp" d="M910.222 903.111h-132.523c-22.756 0-43.321-13.568-52.281-34.475l-55.125-128.683-118.044 118.044c-11.15 11.122-25.685 16.668-40.249 16.668s-29.099-5.547-40.22-16.668l-56.889-56.889c-19.513-19.484-21.902-49.636-7.14-71.737l-338.119-416.171c-18.375-22.613-16.697-55.467 3.925-76.089l227.556-227.556c11.065-11.065 25.6-16.668 40.249-16.668 12.629 0 25.344 4.181 35.84 12.715l416.142 338.148c9.529-6.372 20.537-9.529 31.545-9.529 14.564 0 29.099 5.547 40.22 16.668l56.889 56.889c22.215 22.215 22.215 58.226 0 80.441l-121.771 121.771 52.48 122.453h57.515c31.403 0 56.889 25.486 56.889 56.889v56.889c0 31.403-25.486 56.889-56.889 56.889zM341.333 49.778l-227.556 227.556 351.744 432.924 308.708-308.764-432.896-351.716zM824.889 391.111l-369.778 369.778 56.889 56.889 369.778-369.778-56.889-56.889zM713.586 696.633l53.646 125.156 37.66-56.519-48.014-111.929-43.292 43.292zM910.222 789.333h-87.182l-37.945 56.889h125.127v-56.889z" />
<glyph unicode="&#xe92e;" glyph-name="binoculars" d="M960.711 317.525l-79.929 425.444c-5.063 26.88-28.558 46.364-55.893 46.364h-28.444v8.021c0 74.012-57.458 134.201-128 134.201s-128-60.188-128-134.201v-8.021h-56.889v8.021c0 74.012-57.401 134.201-127.943 134.201-70.599 0-128.057-60.188-128.057-134.201v-8.021h-28.388c-27.392 0-50.887-19.484-55.95-46.364l-79.929-425.444c-4.238-18.29-6.4-36.608-6.4-54.414 0-131.044 110.734-241.778 241.721-241.778 90.681 0 171.605 52.992 212.935 129.024 40.562-76.686 121.173-129.024 213.788-129.024 133.319 0 241.778 108.459 241.778 241.778 0 17.806-2.105 36.124-6.4 54.414zM597.333 797.355c0 42.695 31.829 77.312 71.111 77.312 39.339 0 71.111-34.617 71.111-77.312v-36.466h-142.222v36.466zM284.444 797.355c0 42.695 31.829 77.312 71.168 77.312 39.282 0 71.054-34.617 71.054-77.312v-36.466h-142.222v36.466zM483.556 647.111h-28.444v-113.778h28.444v-270.222c0-101.916-85.333-184.889-184.889-184.889h-0.057c-99.499 0-184.832 82.972-184.832 184.889 0 14.706 1.934 28.956 5.177 42.667l80.213 426.667h284.388v-85.333zM725.333 78.222c-102.002 0-184.832 82.972-184.832 184.889 0 14.706-0.057 42.667-0.057 42.667v227.556h28.444v113.778h-28.444v85.333h284.444l80.156-426.667c3.3-13.71 5.177-27.961 5.177-42.667 0-101.916-82.887-184.889-184.889-184.889zM725.39 391.111c-70.599 0-128-57.429-128-128s57.401-128 128-128c70.542 0 127.943 57.429 127.943 128s-57.401 128-127.943 128zM298.667 135.111c70.599 0 128 57.429 128 128s-57.401 128-128 128-128-57.429-128-128 57.401-128 128-128z" />
<glyph unicode="&#xe92f;" glyph-name="bird_alt" d="M415.602 287.602c-13.881-3.925-28.103-5.803-42.268-5.803-51.854 0-103.111 25.344-136.107 69.717l-23.637-17.579c38.571-51.911 98.788-81.607 159.858-81.607 16.782 0 33.65 2.276 50.148 6.912 85.675 24.178 141.796 105.131 136.42 196.892l-29.412-1.735c4.523-77.824-42.752-146.404-115.001-166.798zM939.52 667.392c-0.228 0.171-12.942 7.822-31.858 19.712 18.83 14.194 32.597 25.031 36.75 28.302 13.796 10.411 22.727 26.908 22.727 45.483 0 31.403-25.401 56.889-56.804 56.889h-129.877c-39.367 53.39-102.628 85.333-172.629 85.333-117.931 0-213.902-96.37-213.902-214.812 0-34.133 7.993-67.015 22.898-96.484l-43.435-12.26-201.643 25.799c-2.418 0.313-4.836 0.484-7.225 0.484-12.686 0-25.088-4.267-35.157-12.174-11.975-9.415-19.684-23.239-21.362-38.4-1.906-16.896-2.389-33.934-1.508-50.972-14.564-4.181-26.795-14.023-34.105-27.278-7.339-13.397-9.017-29.184-4.58-43.804 1.508-5.063 3.186-10.069 4.978-15.076-5.604-5.803-9.927-12.743-12.686-20.537-5.12-14.535-4.153-30.549 2.759-44.373 56.007-112.128 179.058-197.518 306.887-218.396v-66.076c-49.323-13.938-83.826-42.069-85.333-75.89h308.139c-2.219 48.014-70.229 85.333-154.112 85.333-4.068 0-7.822-0.512-11.804-0.654v52.395c0.796-0.028 1.65-0.114 2.446-0.114 22.329 0 44.402 2.133 65.621 6.4 0.853 0.171 1.735 0.37 2.617 0.597 199.424 49.835 289.593 190.777 256.37 398.478 7.339 8.59 13.511 17.579 18.972 26.482h137.529c25.543 0 47.957 17.038 54.784 41.671 6.855 24.604-3.556 50.773-25.458 63.943zM739.527 618.667c-12.743-22.955-25.486-48.725-47.531-62.805 29.44-137.7 19.086-306.972-208.469-363.861-17.892-3.584-36.124-5.291-54.443-5.291-127.63 0-260.693 82.489-315.335 191.915l32.996 15.076c-10.041 17.294-18.432 35.897-24.462 55.922l47.161 13.255c-6.201 27.506-8.22 56.462-4.921 86.044l213.134-27.278 102.4 28.843 30.748 14.45c-36.466 28.757-59.989 73.273-59.989 123.335 0 86.756 70.286 157.952 157.013 157.952 61.952 0 115.342-33.223 140.885-85.333h161.479c0 0-51.029-40.647-103.168-76.089 52.139-35.413 103.168-66.133 103.168-66.133h-170.667zM654.165 760.889c-15.673 0-28.444-12.715-28.444-28.444s12.772-28.444 28.444-28.444c15.787 0 28.444 12.715 28.444 28.444s-12.658 28.444-28.444 28.444z" />
<glyph unicode="&#xe930;" glyph-name="bird" d="M374.699 846.222c90.795 0 164.38-78.62 164.38-176.1 0-8.334 0.256-16.754 0.825-25.742-0.597-29.241-0.768-64.74-0.768-109.852 0-94.777 71.538-169.984 159.744-169.984 86.357 0 156.501 83.456 159.516 168.789h51.826c-4.466-142.222-76.288-243.94-179.541-303.161l-67.186-180.395h-88.661l52.452 138.297c-21.447-4.238-43.605-6.201-66.276-6.201-28.871 0-56.889 3.413-83.712 10.212l-53.931-142.308h-88.661l65.337 172.316c-107.89 57.771-182.642 172.316-187.25 304.782l-0.057 3.328c48.981 0.939 91.676 48.1 91.676 101.86 0 51.115-37.234 94.862-83.314 100.38 23.495 66.532 83.342 113.778 153.6 113.778zM405.874 597.845c19.57 0 35.442 16.242 35.442 36.267s-15.872 36.267-35.442 36.267c-19.627 0-35.499-16.242-35.499-36.267s15.872-36.267 35.499-36.267zM211.228 703.403c34.674 0 63.659-34.247 63.659-71.396 0-37.205-28.985-72.42-63.659-72.42l-97.451 71.879 97.451 71.936zM568.889 558.535c28.444-18.916 42.012-25.202 81.863-25.202h178.119c-2.93-85.333-59.932-139.264-129.849-139.264-71.794 0-130.105 60.501-130.105 138.837v25.628zM828.871 533.333h0.142zM374.699 903.111c-91.876 0-175.189-60.985-207.246-151.723-1.337-3.812-2.247-7.68-2.788-11.634l-84.651-62.492c-14.535-10.752-23.125-27.733-23.125-45.796 0-18.091 8.59-35.044 23.125-45.767l75.833-55.95c0-0.171 0-0.341 0.028-0.512l0.057-3.3c4.58-132.38 70.172-253.468 174.336-327.452l-48.754-128.569c-6.628-17.465-4.267-37.12 6.372-52.508 10.61-15.332 28.132-24.519 46.82-24.519h88.661c23.637 0 44.828 14.62 53.191 36.722l37.205 98.105c9.557-1.109 19.2-1.877 28.928-2.332l-21.020-55.438c-6.599-17.465-4.238-37.12 6.4-52.508 10.581-15.36 28.075-24.548 46.763-24.548h88.661c23.78 0 45.028 14.791 53.305 37.035l60.302 161.82c118.187 75.236 185.429 195.072 189.98 339.797 0.484 15.417-5.291 30.322-15.986 41.387-10.724 11.036-25.458 17.294-40.875 17.294h-259.47c-26.766 0-29.468 1.764-50.375 15.673-1.337 0.882-2.702 1.707-4.096 2.503 0.114 13.17 0.284 24.519 0.512 34.788 0.028 1.65 0 3.271-0.114 4.892-0.512 7.708-0.711 14.905-0.711 22.044 0 128.455-99.243 232.988-221.269 232.988z" />
<glyph unicode="&#xe931;" glyph-name="birthday_cake" d="M853.333 561.778h-85.333v28.444c0 4.238-0.484 8.42-1.365 12.43 18.489 22.244 29.781 51.883 29.781 84.338 0 43.89-38.997 133.746-62.236 183.381-9.387 19.968-29.468 32.74-51.541 32.74s-42.155-12.772-51.541-32.74c-9.813-21.020-22.443-49.209-33.792-78.080-11.321 28.871-23.979 57.060-33.792 78.080-9.387 19.968-29.468 32.74-51.541 32.74s-42.155-12.772-51.541-32.74c-9.813-21.020-22.471-49.209-33.792-78.080-11.321 28.871-23.979 57.060-33.792 78.080-9.387 19.968-29.468 32.74-51.541 32.74s-42.155-12.772-51.513-32.74c-23.268-49.636-62.265-139.492-62.265-183.381 0-32.484 11.292-62.123 29.81-84.395-0.853-3.982-1.337-8.135-1.337-12.373v-28.444h-85.333c-62.748 0-113.778-51.029-113.778-113.778v-113.778c0-17.778 8.306-34.56 22.471-45.312 10.439-7.908 21.988-14.677 34.418-20.139v-218.994c0-31.403 25.486-56.889 56.889-56.889h682.667c31.403 0 56.889 25.486 56.889 56.889v219.022c12.402 5.433 23.95 12.174 34.361 20.082 14.194 10.752 22.528 27.534 22.528 45.34v113.778c0 62.748-51.029 113.778-113.778 113.778zM682.638 846.222c0 0 56.889-121.458 56.889-159.232s-25.486-68.324-56.889-68.324-56.889 30.549-56.889 68.324c0 37.774 56.889 159.232 56.889 159.232zM711.111 533.333h-56.889v56.889h56.889v-56.889zM511.972 846.222c0 0 56.889-121.458 56.889-159.232s-25.486-68.324-56.889-68.324c-31.403 0-56.889 30.549-56.889 68.324s56.889 159.232 56.889 159.232zM540.444 533.333h-56.889v56.889h56.889v-56.889zM341.305 846.222c0 0 56.889-121.458 56.889-159.232s-25.458-68.324-56.889-68.324c-31.403 0-56.889 30.549-56.889 68.324s56.889 159.232 56.889 159.232zM369.778 533.333h-56.889v56.889h56.889v-56.889zM170.667 49.778v232.562c7.481-0.996 15.019-1.593 22.756-1.593 36.238 0 70.628 10.951 96.796 30.805 16.128 12.231 38.884 19.257 62.464 19.257s46.336-7.026 62.464-19.257c26.197-19.854 60.587-30.805 96.825-30.805 36.267 0 70.656 10.951 96.853 30.805 16.1 12.231 38.884 19.257 62.464 19.257 23.552 0 46.308-7.026 62.436-19.257 26.169-19.854 60.558-30.805 96.796-30.805 7.708 0 15.303 0.597 22.784 1.593v-232.562h-682.638zM910.222 334.222c-4.892-3.698-10.212-6.827-15.73-9.728-1.792-0.939-3.698-1.792-5.575-2.674-3.812-1.764-7.737-3.3-11.776-4.693-2.219-0.768-4.409-1.593-6.684-2.247-5.348-1.536-10.78-2.788-16.299-3.669-0.284-0.028-0.54-0.085-0.796-0.171-7.538-1.195-15.132-1.849-22.784-1.849-28.814 0-57.628 8.363-79.616 25.031s-50.83 25.031-79.644 25.031c-28.843 0-57.657-8.363-79.673-25.031s-50.83-25.031-79.673-25.031c-28.814 0-57.628 8.363-79.644 25.031-21.988 16.668-50.83 25.031-79.644 25.031s-57.657-8.363-79.644-25.031-50.802-25.031-79.616-25.031c-7.652 0-15.246 0.654-22.756 1.82v0.028c-0.398 0.085-0.768 0.199-1.166 0.256-5.433 0.882-10.809 2.076-16.014 3.612-2.219 0.597-4.352 1.422-6.485 2.133-4.124 1.422-8.164 3.015-12.089 4.836-1.792 0.825-3.612 1.65-5.348 2.56-5.547 2.901-10.866 6.059-15.787 9.785v113.778c0 31.403 25.486 56.889 56.889 56.889h682.667c31.403 0 56.889-25.486 56.889-56.889v-113.778z" />
<glyph unicode="&#xe932;" glyph-name="block" d="M512.142 846.222c101.888 0 203.804-38.827 281.543-116.622 155.534-155.506 155.534-407.637 0-563.2-77.739-77.71-179.655-116.622-281.543-116.622-101.916 0-203.861 38.884-281.572 116.622-155.563 155.591-155.563 407.694 0 563.2 77.739 77.796 179.627 116.622 281.572 116.622zM276.764 296.078l387.328 387.3c-44.885 29.127-97.166 44.914-151.95 44.914-74.837 0-145.209-29.184-198.144-82.148-52.935-52.907-82.091-123.278-82.091-198.116-0.028-54.784 15.758-107.065 44.857-151.95zM512.142 167.765c74.866 0 145.18 29.156 198.144 82.091 52.878 52.964 82.091 123.278 82.091 198.172 0 54.727-15.758 107.008-44.885 151.893l-387.271-387.3c44.857-29.070 97.166-44.857 151.922-44.857zM512.142 903.111c-121.6 0-235.89-47.332-321.82-133.291-85.988-85.959-133.319-200.249-133.319-321.792s47.332-235.861 133.319-321.849c85.959-85.959 200.249-133.291 321.82-133.291 121.515 0 235.804 47.332 321.764 133.291 177.436 177.493 177.436 466.261 0 643.641-85.874 85.959-200.192 133.291-321.764 133.291z" />
<glyph unicode="&#xe933;" glyph-name="boat" d="M910.251 178.176c-11.378 0-36.949 10.468-49.408 22.67 5.717 6.997 10.212 13.767 13.54 19.911 61.554 100.352 92.729 179.399 92.729 234.894 0 59.42-48.811 100.238-85.276 123.364v96.54c0 150.983-86.13 227.556-255.972 227.556h-227.556c-169.956 0-256.085-76.544-256.085-227.556v-96.54c-36.494-23.125-85.333-63.943-85.333-123.364 0-55.495 31.204-134.514 92.757-234.894 3.3-6.144 7.822-12.914 13.54-19.911-12.487-12.203-38.030-22.67-49.408-22.67-31.403 0-56.889-25.486-56.889-56.889v-71.538c0-31.403 25.486-56.889 56.889-56.889 28.672 0 65.963 11.179 97.963 31.147 29.383-19.968 64.569-31.147 101.148-31.147 35.897 0 70.485 10.752 99.556 30.066 29.070-19.314 63.659-30.066 99.556-30.066s70.485 10.752 99.556 30.066c29.042-19.314 63.63-30.066 99.556-30.066 36.523 0 71.737 11.179 101.148 31.147 32-19.968 69.291-31.147 97.963-31.147 31.403 0 56.832 25.486 56.832 56.889v71.538c0.028 31.403-25.429 56.889-56.804 56.889zM113.778 455.652c0 33.536 35.641 64.028 85.333 90.396v129.508c0 113.778 56.889 170.667 199.14 170.667h227.556c142.222 0 199.083-56.889 199.083-170.667v-129.508c49.664-26.368 85.333-56.86 85.333-90.396 0-56.946-48.924-147.541-85.333-206.791 0 0-28.444-56.889-113.778-56.889s-99.442 78.052-99.442 78.052-28.558-78.052-85.447-78.052v455.14c27.961-7.822 124.188-30.293 213.333-63.545v91.989c0 56.889-28.444 85.333-113.778 85.333h-85.333v-85.333h-56.889v85.333h-85.305c-85.362 0-113.806-28.444-113.806-85.333v-91.989c89.116 33.252 185.344 55.723 213.333 63.545v-455.111c-56.889 0-85.447 78.052-85.447 78.052s-14.108-78.080-99.442-78.080-113.778 56.889-113.778 56.889c-36.409 59.25-85.333 149.845-85.333 206.791zM910.251 49.749c-28.444 0-77.625 20.139-99.612 50.916-21.931-30.777-58.396-50.916-99.499-50.916-41.159 0-77.625 20.139-99.556 50.916-21.959-30.777-58.453-50.916-99.556-50.916-41.188 0-77.625 20.139-99.584 50.916-21.931-30.777-58.34-50.916-99.527-50.916s-77.596 20.139-99.527 50.916c-21.988-30.777-71.168-50.916-99.612-50.916v71.538c28.444 0 77.596 20.196 99.584 50.916 21.931-30.72 58.34-50.916 99.527-50.916s77.596 20.196 99.527 50.916c21.988-30.72 58.396-50.916 99.584-50.916 41.102 0 77.596 20.196 99.556 50.916 21.931-30.72 58.396-50.916 99.556-50.916 41.102 0 77.596 20.196 99.499 50.916 21.988-30.72 71.168-50.916 99.612-50.916v-71.538z" />
<glyph unicode="&#xe934;" glyph-name="bone" d="M684.516 846.222c23.95 0 47.9-9.131 66.105-27.392 36.494-36.523 36.494-95.687 0-132.181-1.252-1.252-2.56-2.332-3.868-3.47l0.398-0.398c1.138 1.308 2.219 2.617 3.47 3.868 18.29 18.233 42.183 27.364 66.076 27.364 23.95 0 47.844-9.131 66.105-27.364 36.523-36.494 36.523-95.716 0-132.21-18.29-18.233-42.155-27.392-66.105-27.392-23.893 0-47.815 9.159-66.076 27.392l-345.173-345.088c36.551-36.58 36.551-95.687 0-132.238-18.204-18.233-42.155-27.335-66.076-27.335s-47.815 9.102-66.076 27.335c-36.523 36.551-36.494 95.687 0 132.238 2.475 2.446 5.12 4.722 7.765 6.884l-0.853 0.853c-2.162-2.731-4.437-5.319-6.912-7.737-18.261-18.29-42.155-27.42-66.076-27.42s-47.844 9.131-66.105 27.42c-36.466 36.437-36.466 95.659 0 132.124 18.233 18.261 42.183 27.392 66.105 27.392s47.815-9.102 66.076-27.392l345.173 345.173c-36.523 36.494-36.523 95.659 0 132.181 18.233 18.261 42.155 27.392 66.048 27.392zM684.516 903.111c-40.135 0-77.881-15.673-106.268-44.060-28.416-28.416-44.060-66.162-44.060-106.325 0-20.338 3.982-40.050 11.634-58.254l-280.348-280.377c-18.204 7.68-37.916 11.662-58.254 11.662-40.164 0-77.938-15.644-106.354-44.060-58.596-58.624-58.596-153.941 0-212.565 24.348-24.348 55.58-39.339 89.259-43.122 3.698-32.597 18.034-64.171 42.923-89.116 28.444-28.388 66.19-44.004 106.325-44.004 40.164 0 77.909 15.616 106.325 43.975 44.345 44.43 55.125 109.909 32.284 164.58l280.519 280.377c18.176-7.623 37.916-11.662 58.226-11.662 40.192 0 77.966 15.673 106.354 44.060s44.060 66.162 44.032 106.354c0 40.164-15.673 77.966-44.089 106.325-24.292 24.292-55.467 39.282-89.202 43.036-3.726 32.597-18.034 64.171-42.951 89.116-28.416 28.416-66.19 44.060-106.354 44.060z" />
<glyph unicode="&#xe935;" glyph-name="book_open" d="M939.548 853.76c-52.082 31.346-124.956 49.351-199.993 49.351-95.46 0-177.408-22.3-227.556-61.554-50.148 39.225-132.096 61.554-227.556 61.554-75.036 0-147.911-18.005-199.993-49.351-17.124-10.297-27.563-28.786-27.563-48.754v-739.527c0-20.537 11.036-39.452 28.9-49.522 8.676-4.892 18.347-7.339 27.989-7.339 10.155 0 20.338 2.731 29.326 8.135 34.361 20.679 87.211 33.024 141.34 33.024 78.535 0 130.702-18.148 154.681-35.527 10.439-13.028 26.453-21.362 44.459-21.362h56.889c18.034 0 34.105 8.391 44.516 21.476 24.092 17.294 76.203 35.413 154.567 35.413 54.13 0 106.98-12.345 141.34-33.024 8.988-5.404 19.172-8.135 29.326-8.135 9.643 0 19.314 2.446 27.989 7.367 17.863 10.069 28.9 28.985 28.9 49.522v739.499c0 19.968-10.439 38.457-27.563 48.754zM113.778 805.006c41.984 25.287 103.993 41.216 170.667 41.216 86.386 0 160.54-19.996 199.111-55.040v-627.627c-38.571 35.044-112.725 55.068-199.111 55.068-66.674 0-128.683-15.957-170.667-41.188v627.57zM483.584 49.721c-38.514 35.157-112.583 56.946-199.14 56.946-66.674 0-128.683-15.929-170.667-41.159v85.333c41.984 25.23 103.993 41.159 170.667 41.159 86.528 0 160.597-20.139 199.111-55.268v-86.955h0.028v-0.057zM910.222 65.508c-41.984 25.23-103.993 41.159-170.667 41.159-86.528 0-160.569-21.76-199.083-56.889h-0.028v86.955c38.514 35.129 112.583 55.268 199.111 55.268 66.674 0 128.683-15.929 170.667-41.159v-85.333zM910.222 177.408c-41.984 25.259-103.993 41.188-170.667 41.188-86.386 0-160.54-19.996-199.111-55.068v627.627c38.571 35.044 112.725 55.068 199.111 55.068 66.674 0 128.683-15.9 170.667-41.188v-627.627z" />
<glyph unicode="&#xe936;" glyph-name="books_pencil" d="M654.222 789.333h-256v56.889h256v-56.889zM369.778 789.333h-256v56.889h256v-56.889zM810.695 845.796c54.955 0 99.527-20.252 99.527-56.889v-56.462h-199.111v56.462c0 36.636 44.572 56.889 99.584 56.889zM654.222 135.111h-256v625.778h256v-625.778zM455.111 675.556h142.222v28.444h-142.222v-28.444zM455.111 618.667h142.222v28.444h-142.222v-28.444zM369.778 135.111h-256v625.778h256v-625.778zM170.667 675.556h142.222v28.444h-142.222v-28.444zM170.667 618.667h142.222v28.444h-142.222v-28.444zM910.222 248.889h-199.111v455.111h199.111v-455.111zM910.222 220.444h0.142zM910.222 220.444l-99.556-170.24-99.556 170.24h199.111zM654.222 49.778h-256v56.889h256v-56.889zM369.778 49.778h-256v56.889h256v-56.889zM654.222 903.111h-540.444c-31.403 0-56.889-25.486-56.889-56.889v-796.444c0-31.403 25.486-56.889 56.889-56.889h540.444c31.403 0 56.889 25.486 56.889 56.889v57.998l50.432-86.3c10.183-17.436 28.9-28.16 49.124-28.16s38.912 10.724 49.124 28.16l98.361 168.192c5.717 8.875 8.96 19.456 8.96 30.777v568.462c0 68.039-62.862 113.778-156.416 113.778-43.605 0-80.526-9.927-107.548-27.42-9.927 16.668-28.132 27.847-48.924 27.847z" />
<glyph unicode="&#xe937;" glyph-name="books" d="M796.444 846.222l113.778-796.444h-56.889l-113.778 796.444h56.889zM682.667 846.222l113.778-796.444h-56.889l-113.778 796.444h56.889zM597.333 789.333h-227.556v56.889h227.556v-56.889zM341.333 789.333h-227.556v56.889h227.556v-56.889zM597.333 135.111h-227.556v625.778h227.556v-625.778zM426.667 675.556h113.778v28.444h-113.778v-28.444zM426.667 618.667h113.778v28.444h-113.778v-28.444zM341.333 135.111h-227.556v625.778h227.556v-625.778zM170.667 675.556h113.778v28.444h-113.778v-28.444zM170.667 618.667h113.778v28.444h-113.778v-28.444zM597.333 49.778h-227.556v56.889h227.556v-56.889zM341.333 49.778h-227.556v56.889h227.556v-56.889zM796.444 903.111h-682.667c-31.403 0-56.889-25.486-56.889-56.889v-796.444c0-31.403 25.486-56.889 56.889-56.889h483.556c31.403 0 56.889 25.486 56.889 56.889v195.072l29.013-203.15c4.011-27.989 28.018-48.811 56.32-48.811h170.667c16.498 0 32.171 7.14 42.98 19.598s15.673 29.013 13.369 45.34l-113.778 796.444c-4.039 28.018-28.046 48.839-56.348 48.839z" />
<glyph unicode="&#xe938;" glyph-name="box_action" d="M682.667 309.931v-260.153h-568.889v568.889h190.407c13.568 20.167 28.7 39.168 45.255 56.889h-235.662c-31.403 0-56.889-25.458-56.889-56.889v-568.889c0-31.403 25.486-56.889 56.889-56.889h568.889c31.403 0 56.889 25.486 56.889 56.889v293.006l-12.857-10.695c-12.857-10.724-28.046-17.977-44.032-22.158zM946.688 676.096l-256 213.788c-10.439 8.732-23.381 13.227-36.466 13.227-8.192 0-16.412-1.764-24.121-5.348-19.996-9.387-32.768-29.468-32.768-51.541v-91.136c-176.896-32.284-312.889-192.313-312.889-380.359v-97.394c0-31.403 25.458-56.889 56.889-56.889h142.222c31.403 0 56.889 25.486 56.889 56.889v97.394c0 50.375 21.333 90.624 56.604 112.441v-67.612c0-22.044 12.743-42.126 32.711-51.513 7.708-3.584 15.957-5.376 24.178-5.376 13.028 0 25.941 4.466 36.352 13.141l256.284 212.85c12.971 10.78 20.508 26.795 20.537 43.662 0.028 16.896-7.481 32.939-20.423 43.776zM653.938 419.556v142.222c-101.66-4.864-170.382-84.167-170.382-187.051v-97.394h-142.222v97.394c0 176.384 137.728 324.352 312.889 329.273v142.222l256-213.817-256.284-212.85zM258.93 536.377c3.812 9.643 7.964 16.043 12.43 25.401h-100.693v-455.111h455.111v203.008c-6.827 1.764-13.625 3.84-20.139 6.855-2.816 1.365-5.575 2.788-8.306 4.324v-185.742h-399.787v401.266h61.383z" />
<glyph unicode="&#xe939;" glyph-name="box_bankers" d="M965.746 602.624l-56.548 253.269c-5.092 26.453-28.16 47.218-55.865 47.218h-682.638c-28.9 0-52.764-21.561-56.405-49.465l-56.036-251.022c-0.882-4.068-1.365-8.249-1.365-12.402v-142.222c0-21.049 11.435-39.481 28.473-49.294v-348.928c0-31.403 25.458-56.889 56.889-56.889h739.527c31.403 0 56.889 25.486 56.889 56.889v348.956c17.010 9.842 28.444 28.217 28.444 49.266v142.222c0 4.153-0.484 8.334-1.365 12.402zM170.695 845.227v0.996h682.638v-1.252l56.86-254.748h-796.416l56.917 255.004zM881.778 49.778h-739.556v369.778h199.111v-85.333h341.362v85.333h199.083v-369.778zM113.778 561.778h796.444v-113.778h-796.444v113.778z" />
<glyph unicode="&#xe93a;" glyph-name="box_check" d="M966.514 783.531c-2.219 15.218-10.524 28.928-23.040 37.916l-98.276 70.912c-10.012 7.253-21.675 10.752-33.223 10.752-16.953 0-33.707-7.538-44.885-21.902l-323.755-415.061-57.941 39.908c-9.557 6.628-20.821 10.069-32.256 10.069-3.47 0-6.912-0.313-10.325-0.967-14.848-2.702-27.989-11.236-36.551-23.694l-68.693-99.755c-17.806-25.856-11.264-61.269 14.592-79.076l199.708-137.614c9.842-6.798 21.077-10.069 32.256-10.069 17.095 0 33.934 7.708 45.113 22.187l426.069 553.472c9.387 12.203 13.454 27.676 11.207 42.923zM484.153 221.81l-199.708 137.643 68.693 99.783 102.087-70.372 356.722 457.358 98.304-70.912-426.098-553.5zM682.667 49.778h-568.889v568.889h376.377l44.373 56.889h-420.75c-31.403 0-56.889-25.486-56.889-56.889v-568.889c0-31.403 25.486-56.889 56.889-56.889h568.889c31.403 0 56.889 25.486 56.889 56.889v317.269l-56.889-73.927v-243.342zM426.667 536.377l21.504 25.401h-277.504v-455.111h455.111v112.583l-28.444-36.978v-47.161h-399.787v401.266z" />
<glyph unicode="&#xe93b;" glyph-name="box_download" d="M967.054 591.758c-0.057 4.124-0.597 8.192-1.621 12.089l-56.86 254.777c-5.803 25.998-28.871 44.487-55.524 44.487h-682.183c-26.624 0-49.721-18.489-55.495-44.487l-57.116-256c-0.996-4.551-1.422-9.131-1.337-13.682v-539.164c0-31.403 25.458-56.889 56.889-56.889h796.444c31.403 0 56.889 25.486 56.889 56.889v540.245c0 0.569 0 1.138-0.085 1.735zM540.473 846.222h312.576l57.145-256h-369.721v256zM910.251 49.778h-796.473v540.444l57.116 256h312.661v-256h-369.778v-28.444h796.444v-512zM711.14 305.778h-142.222v142.222h-113.806v-142.222h-142.222l199.168-181.817z" />
<glyph unicode="&#xe93c;" glyph-name="box_edit" d="M330.297 534.869l28.444 26.908h-188.075v-455.111h455.111v187.762l-27.676-28.444v-132.409h-399.787v401.294zM928.398 864.484c-25.088 24.974-58.311 38.628-93.611 38.628-34.133 0-66.844-13.056-92.132-36.75-0.398-0.398-0.796-0.796-1.195-1.166l-40.334-40.135-365.483-365.255c-6.457-6.457-11.292-14.364-14.052-23.097l-49.749-157.383c-6.372-20.252-0.967-42.382 14.080-57.401 10.809-10.837 25.344-16.64 40.192-16.64 5.746 0 11.548 0.853 17.209 2.674l157.241 49.92c8.676 2.759 16.583 7.566 23.040 13.995l405.305 405.589c0.427 0.427 0.796 0.825 1.223 1.28 49.977 53.191 49.237 134.798-1.735 185.742zM326.116 262.201l49.465 156.53 106.894-106.923-156.359-49.607zM502.869 331.634l-107.463 107.463 350.578 350.35 107.264-107.236-350.379-350.578zM888.661 717.682l-15.332-15.36-107.179 107.207 15.417 15.332c15.047 14.137 34.162 21.362 53.22 21.362 19.456 0 38.656-7.339 53.39-21.988 29.099-29.070 28.985-76.231 0.484-106.553zM682.667 49.778h-568.889v568.889h304.014l56.917 56.889h-360.932c-31.403 0-56.889-25.486-56.889-56.889v-568.889c0-31.403 25.486-56.889 56.889-56.889h568.889c31.403 0 56.889 25.486 56.889 56.889v357.717l-56.889-56.917v-300.8z" />
<glyph unicode="&#xe93d;" glyph-name="box_expand" d="M682.667 49.778h-568.889v572.558h311.95l56.917 53.22h-368.868c-31.403 0-56.889-21.817-56.889-53.22v-572.558c0-31.403 25.486-56.889 56.889-56.889h568.889c31.403 0 56.889 25.486 56.889 56.889v364.772l-56.889-57.173v-307.598zM910.222 903.111h-398.222c-23.012 0-43.748-13.852-52.565-35.1-8.789-21.276-3.925-45.739 12.345-62.009l109.084-109.084-258.645-258.446c-22.101-22.101-22.244-57.941-0.256-80.213l99.783-101.063c10.667-10.809 25.202-16.896 40.363-16.924h0.114c15.132 0 29.639 6.030 40.334 16.754l258.446 259.755 108.999-108.999c10.894-10.894 25.401-16.668 40.22-16.668 7.339 0 14.734 1.422 21.788 4.324 21.248 8.818 35.1 29.554 35.1 52.565v398.222c0 31.403-25.486 56.889-56.889 56.889zM910.222 448l-149.333 149.333-298.667-300.174-99.783 101.063 298.894 298.667-149.333 149.333h398.222v-398.222zM339.712 533.333l28.444 28.444h-197.49v-455.111h455.111v195.1l-26.88-28.587v-138.069h-399.787v398.222z" />
<glyph unicode="&#xe93e;" glyph-name="box_upload" d="M967.054 591.758c-0.085 4.124-0.597 8.192-1.621 12.089l-56.86 254.777c-5.831 25.998-28.843 44.487-55.552 44.487h-682.155c-26.624 0-49.721-18.489-55.467-44.487l-57.145-256c-0.996-4.551-1.422-9.131-1.337-13.682v-539.164c-0.028-31.403 25.458-56.889 56.86-56.889h796.444c31.431 0 56.946 25.486 56.946 56.889v540.245c-0.028 0.569-0.028 1.138-0.114 1.735zM540.416 846.222h312.604l57.173-256h-369.778v256zM910.251 49.778h-796.473v540.444l57.116 256h312.661v-256h-369.778v-28.444h796.444v-512zM312.889 277.333h142.222v-142.222h113.806v142.222h142.222l-199.14 181.817z" />
<glyph unicode="&#xe93f;" glyph-name="box" d="M967.111 591.758c-0.114 4.124-0.683 8.192-1.65 12.089l-56.889 254.777c-5.803 25.998-28.871 44.487-55.524 44.487h-682.155c-26.652 0-49.721-18.489-55.524-44.487l-57.145-256c-0.996-4.551-1.422-9.131-1.337-13.682v-539.164c0-31.403 25.486-56.889 56.889-56.889h796.444c31.403 0 56.889 25.486 56.889 56.889v540.245c0 0.569 0 1.138 0 1.735zM540.444 846.222h312.604l57.173-256h-369.778v256zM113.778 49.778v540.444l57.116 256h312.661v-256h-369.778v-28.444h796.444v-512h-796.444z" />
<glyph unicode="&#xe940;" glyph-name="bridge_covered" d="M967.111 277.305c0 21.049-11.435 39.452-28.444 49.266v305.465c0 16.868-7.538 33.28-21.191 44.288l-261.348 214.158c-10.098 8.164-22.699 12.601-35.698 12.601h-236.43c-14.023 0-28.018-5.148-38.997-15.445l-241.749-227.556c-11.435-10.78-17.92-25.771-17.92-41.444v-292.068c-17.010-9.842-28.444-28.217-28.444-49.266v-227.527c0-31.403 25.486-56.889 56.889-56.889 35.897 0 70.514 10.78 99.556 30.18 29.070-19.399 63.659-30.18 99.556-30.18 35.925 0 70.514 10.78 99.556 30.18 29.070-19.399 63.659-30.18 99.556-30.18s70.514 10.78 99.556 30.18c29.070-19.399 63.659-30.18 99.556-30.18 35.925 0 70.514 10.78 99.556 30.18 29.070-19.399 63.659-30.18 99.556-30.18 31.403 0 56.889 25.486 56.889 56.889v227.527zM634.738 846.222l247.040-199.14h-247.125l-211.57 199.14h211.655zM881.778 305.749h-227.556v312.917h227.556v-312.917zM142.222 618.638l241.749 227.556 241.806-227.556v-312.889h-113.778v227.584c0 51.2-56.519 113.749-128.028 113.749s-127.972-62.549-127.972-113.749v-227.584h-113.778v312.889zM910.222 49.778c-41.159 0-77.596 20.309-99.556 51.257-21.931-30.948-58.396-51.257-99.556-51.257-41.131 0-77.596 20.309-99.527 51.257-21.959-30.948-58.425-51.257-99.584-51.257s-77.596 20.309-99.584 51.257c-21.902-30.948-58.34-51.257-99.527-51.257-41.159 0-77.596 20.309-99.527 51.257-21.959-30.948-58.425-51.257-99.584-51.257v71.964c41.159 0 77.625 20.366 99.584 51.257 21.931-30.891 58.368-51.257 99.527-51.257 41.188 0 77.625 20.366 99.527 51.257 21.988-30.891 58.425-51.257 99.584-51.257s77.625 20.366 99.584 51.257c21.931-30.891 58.396-51.257 99.527-51.257 41.159 0 77.625 20.366 99.556 51.257 21.959-30.891 58.396-51.257 99.556-51.257v-71.964zM910.222 220.416h-796.444v56.917h796.444v-56.917z" />
<glyph unicode="&#xe941;" glyph-name="brightness" d="M213.22 241.124l-23.012-22.898c-25.429-25.458-25.429-66.674 0-92.018 25.458-25.316 66.617-25.316 91.904 0l22.983 23.012c25.458 25.344 25.458 66.588 0 91.904-25.259 25.401-66.532 25.401-91.876 0zM219.449 448c0 35.868-29.099 64.996-64.996 64.996h-32.569c-35.812 0-64.996-29.127-64.996-64.996s29.184-64.996 64.996-64.996h32.569c35.897 0 64.996 29.127 64.996 64.996zM512.028 740.551c35.925 0 64.996 29.127 64.996 64.996v32.569c0 35.84-29.070 64.996-64.996 64.996-35.84 0-64.996-29.156-64.996-64.996v-32.569c0-35.868 29.156-64.996 64.996-64.996zM213.22 654.905c25.344-25.458 66.56-25.458 91.876 0 25.458 25.316 25.458 66.56 0 91.876l-22.983 23.012c-25.344 25.458-66.446 25.458-91.904 0-25.429-25.372-25.429-66.588 0-91.876l23.012-23.012zM810.837 654.905l23.012 23.012c25.458 25.316 25.458 66.56 0 91.904-25.344 25.429-66.56 25.429-91.876-0.028l-22.983-23.012c-25.486-25.287-25.486-66.532 0-91.876 25.287-25.458 66.503-25.458 91.847 0zM902.116 512.996h-32.597c-35.812 0-64.967-29.127-64.967-64.996s29.156-64.996 64.967-64.996h32.597c35.897 0 64.996 29.127 64.996 64.996s-29.099 64.996-64.996 64.996zM810.837 241.095c-25.344 25.458-66.56 25.458-91.847 0-25.486-25.316-25.486-66.56 0-91.876l22.983-23.012c25.344-25.458 66.56-25.458 91.876 0 25.458 25.372 25.458 66.588 0 91.876l-23.012 23.012zM512.028 155.449c-35.84 0-64.996-29.127-64.996-64.996v-32.569c0-35.868 29.156-64.996 64.996-64.996 35.925 0 64.996 29.127 64.996 64.996v32.569c0 35.84-29.070 64.996-64.996 64.996zM512 675.556c-125.668 0-227.556-101.945-227.556-227.556 0-125.668 101.888-227.556 227.556-227.556 125.611 0 227.556 101.888 227.556 227.556 0 125.611-101.945 227.556-227.556 227.556zM512 277.333c-94.123 0-170.667 76.544-170.667 170.667s76.544 170.667 170.667 170.667c94.123 0 170.667-76.544 170.667-170.667s-76.544-170.667-170.667-170.667z" />
<glyph unicode="&#xe942;" glyph-name="browser" d="M469.333 704c23.552 0 42.667 19.115 42.667 42.667s-19.115 42.667-42.667 42.667-42.667-19.115-42.667-42.667 19.115-42.667 42.667-42.667zM355.584 704c23.495 0 42.638 19.058 42.638 42.638 0 23.524-19.143 42.695-42.638 42.695-23.552 0-42.695-19.172-42.695-42.695 0-23.58 19.143-42.638 42.695-42.638zM241.806 704c23.552 0 42.638 19.058 42.638 42.638 0 23.524-19.086 42.695-42.638 42.695-23.58 0-42.695-19.172-42.695-42.695 0-23.58 19.115-42.638 42.695-42.638zM796.444 903.111h-568.889c-94.123 0-170.667-76.544-170.667-170.667v-682.667c0-31.403 25.486-56.889 56.889-56.889h796.444c31.403 0 56.889 25.486 56.889 56.889v682.667c0 94.123-76.544 170.667-170.667 170.667zM227.556 846.222h568.889c62.834 0 113.778-50.944 113.778-113.778v-113.778h-796.444v113.778c0 62.834 50.944 113.778 113.778 113.778zM113.778 590.222h796.444v-540.444h-796.444v540.444z" />
<glyph unicode="&#xe943;" glyph-name="brush" d="M199.083 170.667c-9.074 0-18.204-3.499-25.145-10.439-13.881-13.824-13.881-36.38 0-50.233 6.969-6.969 16.071-10.439 25.173-10.439 9.074 0 18.204 3.47 25.145 10.439 13.852 13.824 13.852 36.38 0 50.233-6.94 6.94-16.071 10.439-25.173 10.439zM950.443 516.693l-369.778 369.778c-11.122 11.093-25.657 16.64-40.249 16.64-14.535 0-29.070-5.547-40.22-16.64l-341.333-341.333c-16.725-16.754-21.39-42.155-11.577-63.744l63.63-140.231-114.375-114.375c-24.263-24.263-38.684-58.539-39.623-94.009-0.996-38.116 13.084-73.728 39.623-100.238 25.515-25.543 59.819-39.68 96.512-39.68 36.864 0 72.505 14.478 97.707 39.708l114.375 114.375 140.231-63.602c7.538-3.413 15.559-5.12 23.467-5.12 14.82 0 29.355 5.774 40.249 16.697l341.333 341.333c22.244 22.215 22.244 58.169 0.028 80.441zM568.86 135.083l-176.071 79.929-142.222-142.222c-14.706-14.734-35.925-23.040-57.486-23.040-20.082 0-40.476 7.196-56.292 23.040-32.796 32.768-28.444 85.333 0 113.778l142.222 142.222-79.9 176.1 103.737 103.737 369.778-369.778-103.765-103.765zM692.736 258.958l-369.778 369.778 217.458 217.486 369.778-369.778-217.458-217.486z" />
<glyph unicode="&#xe944;" glyph-name="bug" d="M808.619 301.227c5.177 22.841 9.045 46.592 11.776 70.997 52.053-21.788 82.375-48.668 91.335-75.435 3.925-11.918 15.047-19.456 26.937-19.456 2.987 0 6.002 0.484 8.988 1.479 14.876 4.949 22.955 21.049 18.005 35.982-16.498 49.522-66.162 88.974-141.34 116.651 0.171 5.518 0.569 10.951 0.569 16.555 0 5.632-0.398 11.036-0.569 16.583 75.179 27.676 124.843 67.129 141.34 116.651 4.949 14.905-3.1 31.033-18.005 35.982-15.047 4.949-31.004-3.1-35.954-17.977-8.932-26.795-39.282-53.675-91.335-75.463-2.731 24.462-6.599 48.185-11.776 70.997 96.853 67.897 158.521 168.078 158.521 279.893 0 15.73-12.715 28.444-28.444 28.444s-28.444-12.715-28.444-28.444c0-86.699-45.17-165.291-117.988-222.009-50.688 149.561-155.733 250.453-280.235 250.453-124.444 0-229.49-100.892-280.235-250.453-72.761 56.69-117.988 135.31-117.988 222.009 0 15.73-12.715 28.444-28.444 28.444s-28.444-12.715-28.444-28.444c0-111.815 61.668-211.996 158.549-279.893-5.205-22.812-9.102-46.535-11.833-70.997-52.053 21.788-82.318 48.668-91.278 75.463-4.949 14.876-20.992 22.926-35.982 17.977-14.905-4.949-22.955-21.077-17.948-35.982 16.498-49.522 66.162-88.974 141.284-116.651-0.114-5.547-0.569-10.951-0.569-16.583 0-5.604 0.455-11.036 0.569-16.583-75.122-27.676-124.786-67.1-141.284-116.651-5.006-14.905 3.044-31.033 17.948-35.982 14.99-5.006 31.033 3.072 35.982 17.977 8.96 26.766 39.225 53.675 91.278 75.435 2.731-24.405 6.628-48.156 11.833-70.997-96.882-67.868-158.549-168.021-158.549-279.865 0-15.73 12.715-28.444 28.444-28.444s28.444 12.715 28.444 28.444c0 86.727 45.227 165.319 117.988 222.037 50.745-149.589 155.79-250.482 280.235-250.482 124.501 0 229.547 100.892 280.235 250.482 72.818-56.718 117.988-135.31 117.988-222.037 0-15.73 12.715-28.444 28.444-28.444s28.444 12.715 28.444 28.444c0 111.844-61.668 211.996-158.492 279.893zM321.508 713.301c10.61 18.432 22.272 35.271 34.873 50.347 2.076 2.475 4.181 4.921 6.286 7.282 3.328 3.755 6.656 7.481 10.155 10.98 3.442 3.499 6.969 6.713 10.524 9.927 4.21 3.84 8.42 7.481 12.828 10.923 4.096 3.243 8.22 6.428 12.43 9.33 2.731 1.906 5.518 3.641 8.22 5.404 4.722 2.93 9.5 5.632 14.336 8.135 2.162 1.109 4.238 2.332 6.4 3.356 6.94 3.271 13.938 6.087 21.106 8.448 1.934 0.626 3.954 1.138 5.945 1.678 5.717 1.707 11.492 3.072 17.323 4.153 2.219 0.398 4.466 0.825 6.741 1.138 7.652 1.081 15.445 1.82 23.324 1.82s15.673-0.74 23.381-1.82c2.219-0.313 4.437-0.74 6.656-1.138 5.831-1.081 11.605-2.446 17.323-4.124 1.991-0.569 4.011-1.081 6.002-1.707 7.111-2.361 14.165-5.177 20.992-8.42 2.276-1.052 4.437-2.332 6.599-3.47 4.779-2.475 9.444-5.12 14.052-7.993 2.844-1.792 5.66-3.584 8.448-5.518 4.124-2.816 8.107-5.916 12.117-9.074 4.665-3.669 9.159-7.566 13.653-11.662 3.328-3.044 6.599-6.030 9.842-9.301 3.556-3.556 6.94-7.367 10.382-11.207 1.991-2.276 4.011-4.608 6.002-6.997 12.715-15.161 24.434-32.114 35.1-50.631 0.398-0.683 0.768-1.308 1.166-1.991 3.726-6.599 7.111-13.71 10.553-20.679-44.487-88.519-119.922-142.933-202.268-142.933-82.062 0-157.781 54.528-202.268 142.99 3.442 6.912 6.77 13.995 10.496 20.565 0.427 0.74 0.882 1.451 1.28 2.19zM464.612 56.889c-1.991 0.569-4.011 1.052-5.945 1.707-7.168 2.361-14.165 5.205-21.106 8.448-2.162 1.024-4.238 2.247-6.4 3.356-4.836 2.503-9.614 5.205-14.336 8.135-2.702 1.764-5.49 3.499-8.22 5.404-4.21 2.901-8.334 6.059-12.43 9.301-4.409 3.442-8.619 7.083-12.828 10.923-3.556 3.214-7.083 6.457-10.524 9.956-3.499 3.499-6.827 7.225-10.155 10.98-2.105 2.361-4.21 4.807-6.286 7.282-12.601 15.076-24.263 31.915-34.873 50.375-0.398 0.711-0.853 1.451-1.28 2.162-24.007 42.24-42.382 92.274-53.163 147.57-0.626 3.015-0.996 6.201-1.564 9.244-6.002 33.877-9.5 69.404-9.5 106.268s3.499 72.391 9.5 106.297c0.569 3.044 0.939 6.201 1.564 9.244 6.485 33.508 16.1 64.711 27.762 93.81 44.942-76.658 113.351-125.724 188.729-135.794v-469.077c-0.512 0.114-1.052 0.199-1.621 0.284-5.831 1.081-11.605 2.418-17.323 4.124zM758.5 341.732c-0.512-3.044-0.939-6.229-1.508-9.244-10.78-55.324-29.212-105.358-53.22-147.627-0.398-0.654-0.768-1.308-1.166-1.963-10.667-18.517-22.386-35.47-35.1-50.631-1.991-2.389-4.011-4.722-6.002-6.997-3.442-3.84-6.827-7.652-10.382-11.207-3.214-3.271-6.514-6.286-9.842-9.301-4.494-4.124-8.988-7.993-13.653-11.662-4.011-3.157-7.993-6.258-12.117-9.074-2.788-1.906-5.604-3.726-8.448-5.49-4.608-2.901-9.273-5.518-14.052-7.993-2.162-1.138-4.324-2.418-6.599-3.47-6.827-3.214-13.881-6.059-20.992-8.42-1.991-0.626-4.011-1.138-6.002-1.735-5.717-1.678-11.492-3.015-17.323-4.124-0.512-0.085-1.052-0.171-1.621-0.284v468.708c75.605 9.984 143.787 59.335 188.729 136.107 11.662-29.070 21.276-60.302 27.847-93.781 0.569-3.044 0.996-6.201 1.508-9.244 6.002-33.906 9.444-69.433 9.444-106.297s-3.442-72.391-9.5-106.268z" />
<glyph unicode="&#xe945;" glyph-name="bullseye_arrow" d="M625.436 440.804c18.261-36.38 28.786-77.34 28.786-120.804 0-149.22-121.003-270.222-270.222-270.222-149.248 0-270.222 121.003-270.222 270.222s120.974 270.222 270.222 270.222c43.463 0 84.395-10.496 120.775-28.757l41.927 41.927c-48.014 27.62-103.452 43.719-162.702 43.719-180.366 0-327.111-146.745-327.111-327.111s146.745-327.111 327.111-327.111c180.338 0 327.111 146.745 327.111 327.111 0 59.25-16.071 114.716-43.748 162.731l-41.927-41.927zM965.063 727.609c-5.461 19.769-21.134 35.044-41.017 40.021l-41.785 10.439 19.598 19.598c11.122 11.122 11.122 29.127 0 40.22-11.122 11.122-29.099 11.122-40.22 0l-19.598-19.598-10.411 41.756c-4.978 19.854-20.252 35.556-39.993 41.017-5.063 1.394-10.155 2.048-15.218 2.048-14.876 0-29.412-5.86-40.22-16.668l-133.803-133.803c-14.137-14.137-19.797-34.645-14.962-53.988l26.738-107.065c0.085-0.313 0.256-0.54 0.341-0.825l-113.892-113.92c-32.626 24.292-72.903 38.884-116.594 38.884-107.918 0-195.726-87.808-195.726-195.726s87.808-195.726 195.726-195.726 195.726 87.808 195.726 195.726c0 43.719-14.592 83.996-38.912 116.622l113.92 113.92c0.313-0.085 0.569-0.284 0.853-0.37l107.065-26.738c4.551-1.138 9.188-1.707 13.767-1.707 14.876 0 29.412 5.86 40.22 16.668l133.803 133.803c14.478 14.507 20.053 35.641 14.592 55.41zM776.42 846.222l22.727-90.965-133.803-133.803-22.727 90.965 133.803 133.803zM551.282 320c0-92.388-74.894-167.282-167.282-167.282s-167.282 74.894-167.282 167.282 74.894 167.282 167.282 167.282c35.925 0 69.092-11.406 96.37-30.663l-116.508-116.508c-11.122-11.122-11.122-29.099 0-40.22 5.547-5.547 12.828-8.334 20.11-8.334s14.564 2.788 20.11 8.334l116.508 116.508c19.257-27.278 30.692-60.473 30.692-96.398zM776.42 578.617l-90.965 22.727 133.831 133.831 90.937-22.756-133.803-133.803z" />
<glyph unicode="&#xe946;" glyph-name="burger" d="M511.972 846.222c188.53 0 341.362-127.403 341.362-284.473h-682.667c0 157.070 152.804 284.473 341.305 284.473zM694.187 533.333c37.234 0 70.286-6.428 102.116-12.629 28.331-5.604 55.012-10.724 79.502-10.752h34.418v-90.396h-34.418c-35.783 0-68.779 6.457-100.722 12.715-26.994 5.291-54.841 10.667-79.559 10.667h-3.442c-24.604 0-52.338-5.376-79.161-10.667-32.171-6.258-65.223-12.715-100.949-12.715-35.669 0-68.779 6.457-100.665 12.715-27.051 5.291-54.784 10.667-79.559 10.667h-3.442c-24.604 0-52.395-5.376-79.218-10.667-32.171-6.258-65.223-12.715-100.892-12.715h-34.418v90.396h34.418c24.491 0.028 51.172 5.148 79.388 10.752 31.943 6.201 64.996 12.629 100.779 12.629h2.048c37.177 0 70.229-6.428 102.116-12.629 28.274-5.604 54.898-10.724 79.445-10.752 24.548 0.028 51.228 5.148 79.388 10.752 31.943 6.201 64.996 12.629 100.722 12.629h2.105zM847.417 391.111c34.674 0 62.805-31.943 62.805-70.94 0-39.396-28.132-71.282-62.805-71.282h-670.891c-34.674 0-62.748 31.886-62.748 71.282 0 38.997 28.075 70.94 62.748 70.94h670.891zM853.305 220.444h0.142zM853.305 220.444c0-149.788-152.832-170.667-341.333-170.667s-341.333 20.878-341.333 170.667h682.667zM511.972 903.111c-217.572 0-394.98-150.386-398.137-336.27h-0.057c-31.431 0-56.889-25.486-56.889-56.889v-90.396c0-14.677 5.547-28.018 14.677-38.116-9.387-18.204-14.677-39.083-14.677-61.269 0-46.108 22.841-86.585 57.031-109.17 7.367-218.112 270.62-218.112 398.052-218.112 127.403 0 390.684-0.028 398.052 218.084 34.219 22.585 57.088 63.090 57.088 109.198 0 22.187-5.319 43.065-14.677 61.269 9.131 10.098 14.677 23.438 14.677 38.116v90.396c0 31.403-25.486 56.889-56.889 56.889h-0.057c-3.157 185.884-180.594 336.27-398.194 336.27z" />
</font>
</defs>
</svg>
